<?xml version="1.0" standalone="no"?>
<!DOCTYPE svg PUBLIC "-//W3C//DTD SVG 1.1//EN" "http://www.w3.org/Graphics/SVG/1.1/DTD/svg11.dtd" >
<svg xmlns="http://www.w3.org/2000/svg">
<metadata>Generated by IcoMoon</metadata>
<defs>
<font id="mobirise" horiz-adv-x="1024">
<font-face units-per-em="1024" ascent="960" descent="-64" />
<missing-glyph horiz-adv-x="1024" />
<glyph unicode="&#x20;" horiz-adv-x="512" d="" />
<glyph unicode="&#xe900;" glyph-name="mbri-add-submenu" d="M85.333 874.667c-46.906 0-85.333-38.426-85.333-85.333v-42.667c0-46.908 38.428-85.333 85.333-85.333h682.667c46.906 0 85.333 38.426 85.333 85.333v42.667c0 46.908-38.428 85.333-85.333 85.333h-682.667zM85.333 832h682.667c24.006 0 42.667-18.662 42.667-42.667v-42.667c0-24.004-18.66-42.667-42.667-42.667h-682.667c-24.006 0-42.667 18.662-42.667 42.667v42.667c0 24.004 18.66 42.667 42.667 42.667zM85.333 256.546v-85.333c0.001-11.17 10.164-21.333 21.333-21.333h205.333l-49.333-48c-19.731-19.729 11.111-48.892 29.333-30.669l85.333 85.333c8.198 7.932 8.198 22.737 0 30.669l-85.333 85.333c-17.504 17.506-48.976-11.025-29.333-30.669l49.333-49.331h-184v64c0 28.954-42.667 27.925-42.667 0zM554.667 277.333c-46.906 0-85.333-38.426-85.333-85.333v-42.667c0-46.908 38.428-85.333 85.333-85.333h384c46.906 0 85.333 38.426 85.333 85.333v42.667c0 46.908-38.428 85.333-85.333 85.333h-384zM554.667 234.667h384c24.006 0 42.667-18.662 42.667-42.667v-42.667c0-24.004-18.66-42.667-42.667-42.667h-384c-24.006 0-42.667 18.662-42.667 42.667v42.667c0 24.004 18.66 42.667 42.667 42.667zM85.333 576c-46.906 0-85.333-38.426-85.333-85.333v-42.667c0-46.908 38.428-85.333 85.333-85.333h682.667c46.906 0 85.333 38.426 85.333 85.333v42.667c0 46.908-38.428 85.333-85.333 85.333h-682.667zM85.333 533.333h682.667c24.006 0 42.667-18.662 42.667-42.667v-42.667c0-24.004-18.66-42.667-42.667-42.667h-682.667c-24.006 0-42.667 18.662-42.667 42.667v42.667c0 24.004 18.66 42.667 42.667 42.667z" />
<glyph unicode="&#xe901;" glyph-name="mbri-alert" d="M426.667 0c0-38.185 38.268-64 85.333-64 47.028 0 85.333 25.794 85.333 64 0 28.38-42.667 27.692-42.667 0 0-4.532-12.29-21.333-42.667-21.333-30.339 0-42.667 16.984-42.667 21.333 0 28.328-42.667 27.69-42.667 0zM512 960c-73.101 0-128-51.245-128-106.667 0-29.275 42.667-26.914 42.667 0 0 26.864 32.049 64 85.333 64 53.328 0 85.333-36.871 85.333-64 0-27.857 42.667-28.57 42.667 0 0 55.551-54.943 106.667-128 106.667zM234.647 832h-21.333c-70.945 0-128-57.055-128-128v-21.333c0.158-11.271-10.062-21.333-21.333-21.333s-21.493 10.063-21.333 21.333v21.333c0 94.004 76.663 170.667 170.667 170.667h21.333c14.371 0 21.421-10.667 21.353-21.333s-7.253-21.333-21.353-21.333zM789.333 832h21.333c70.945 0 128-57.055 128-128v-21.333c-0.158-11.271 10.062-21.333 21.333-21.333s21.493 10.063 21.333 21.333v21.333c0 94.004-76.663 170.667-170.667 170.667h-21.333c-14.371 0-21.421-10.667-21.353-21.333s7.253-21.333 21.353-21.333zM512 789.333c-107.856 0-186.893-47.101-236-116s-62.667-157.951-62.667-246.667c0-167.358-44.478-243.878-122.667-326.667-11.107-11.728-2.982-36 16-36h810.667c19.648 0 27.343 24.022 16 36-78.188 82.789-122.667 159.309-122.667 326.667 0 88.716-13.56 177.767-62.667 246.667s-128.144 116-236 116zM512 746.667c95.942 0 159.184-38.196 201.333-97.333s54.667-140.667 54.667-222.667c0-152.364 45.297-240.728 109.333-320h-730.667c64.036 79.272 109.333 167.636 109.333 320 0 82 12.517 163.529 54.667 222.667s105.391 97.333 201.333 97.333z" />
<glyph unicode="&#xe902;" glyph-name="mbri-align-center" d="M21.333 149.333h981.333c29.059 0 27.603-42.667 0-42.667h-981.333c-27.528 0-28.723 42.667 0 42.667zM277.333 362.667h469.333c28.695 0 27.914-42.667 0-42.667h-469.333c-27.77 0-28.544 42.667 0 42.667zM21.333 576h981.333c27.784 0 28.984-42.667 0-42.667h-981.333c-27.931 0-28.398 42.667 0 42.667zM277.333 789.333h469.333c28.099 0 28.124-42.667 0-42.667h-469.333c-27.864 0-28.375 42.667 0 42.667z" />
<glyph unicode="&#xe903;" glyph-name="mbri-align-justify" d="M21.333 149.333h981.333c29.059 0 27.603-42.667 0-42.667h-981.333c-27.528 0-28.723 42.667 0 42.667zM21.333 362.667h981.333c28.695 0 27.914-42.667 0-42.667h-981.333c-27.77 0-28.544 42.667 0 42.667zM21.333 576h981.333c27.784 0 28.984-42.667 0-42.667h-981.333c-27.931 0-28.398 42.667 0 42.667zM21.333 789.333h981.333c28.099 0 28.124-42.667 0-42.667h-981.333c-27.864 0-28.375 42.667 0 42.667z" />
<glyph unicode="&#xe904;" glyph-name="mbri-align-left" d="M21.333 149.333h554.667c29.059 0 27.603-42.667 0-42.667h-554.667c-27.528 0-28.723 42.667 0 42.667zM21.333 362.667h981.333c28.695 0 27.914-42.667 0-42.667h-981.333c-27.77 0-28.544 42.667 0 42.667zM21.333 576h554.667c27.784 0 28.984-42.667 0-42.667h-554.667c-27.931 0-28.398 42.667 0 42.667zM21.333 789.333h981.333c28.099 0 28.124-42.667 0-42.667h-981.333c-27.864 0-28.375 42.667 0 42.667z" />
<glyph unicode="&#xe905;" glyph-name="mbri-align-right" d="M1002.773 149.333h-554.667c-29.059 0-27.603-42.667 0-42.667h554.667c27.528 0 28.723 42.667 0 42.667zM1002.773 362.667h-981.333c-28.695 0-27.914-42.667 0-42.667h981.333c27.77 0 28.544 42.667 0 42.667zM1002.773 576h-554.667c-27.784 0-28.984-42.667 0-42.667h554.667c27.931 0 28.398 42.667 0 42.667zM1002.773 789.333h-981.333c-28.099 0-28.124-42.667 0-42.667h981.333c27.864 0 28.375 42.667 0 42.667z" />
<glyph unicode="&#xe906;" glyph-name="mbri-android" d="M841.416 914.721c-10.532 5.292-23.096 1.39-28.377-9.162l-85.431-170.681c-5.282-10.552-1.055-23.308 9.477-28.599s23.262-1.057 28.544 9.495l85.431 170.681c5.144 10.278 0.888 22.974-9.643 28.266zM182.584 914.721c10.532 5.292 23.096 1.39 28.377-9.162l85.431-170.681c5.282-10.552 1.055-23.308-9.477-28.599s-23.262-1.057-28.544 9.495l-85.431 170.681c-4.948 9.886-0.888 22.974 9.643 28.266zM512 704c-244.14 0-445.554-156.275-508-377.333-13.525-60.778 11.203-92 68-92h880c56.797 0 81.525 31.222 68 92-62.446 221.058-263.86 377.333-508 377.333zM512 661.333c224.144 0 411.111-143.396 468-346.667 6.702-25.013 1.566-37.333-28-37.333h-880c-29.566 0-34.702 12.32-28 37.333 56.889 203.271 243.856 346.667 468 346.667zM64 192c-35.087 0-64-28.913-64-64v-85.333c0-35.087 28.913-64 64-64h896c35.087 0 64 28.913 64 64v85.333c0 35.087-28.913 64-64 64zM64 149.333h896c12.188 0 21.333-9.146 21.333-21.333v-85.333c0-12.188-9.146-21.333-21.333-21.333h-896c-12.188 0-21.333 9.146-21.333 21.333v85.333c0 12.188 9.146 21.333 21.333 21.333zM704 533.333c-35.087 0-64-28.913-64-64v-85.333c0-35.087 28.913-64 64-64s64 28.913 64 64v85.333c0 35.087-28.913 64-64 64zM704 490.667c12.188 0 21.333-9.146 21.333-21.333v-85.333c0-12.188-9.146-21.333-21.333-21.333s-21.333 9.146-21.333 21.333v85.333c0 12.188 9.146 21.333 21.333 21.333zM320 533.333c-35.087 0-64-28.913-64-64v-85.333c0-35.087 28.913-64 64-64s64 28.913 64 64v85.333c0 35.087-28.913 64-64 64zM320 490.667c12.188 0 21.333-9.146 21.333-21.333v-85.333c0-12.188-9.146-21.333-21.333-21.333s-21.333 9.146-21.333 21.333v85.333c0 12.188 9.146 21.333 21.333 21.333z" />
<glyph unicode="&#xe907;" glyph-name="mbri-apple" d="M661.333 960c-118.044 0-192-96-192-192 0.001-11.782 9.552-21.332 21.333-21.333 96 0 192 73.956 192 192-0.001 11.782-9.552 21.332-21.333 21.333zM634.583 911.917c-10.84-62.898-56.782-96.697-109.583-109.583 12.886 52.801 46.685 98.744 109.583 109.583zM341.333 746.667c-69.553 0-135.303-27.983-181.917-85.333s-74.083-142.529-74.083-256c0-114.85 38.431-229.68 88.083-317.083 24.826-43.702 52.444-80.563 80.5-107.333s56.585-44.917 87.417-44.917c46.222 0 77.464 12.262 102 23.167s41.407 19.5 68.667 19.5c27.259 0 44.131-8.595 68.667-19.5s55.778-23.167 102-23.167c24.192 0 46.687 12.165 70.417 29.917s48.322 42.18 72.083 71.25c47.523 58.139 91.691 134.739 112.75 213.333 2.573 9.565-1.776 19.643-10.5 24.333-56.278 30.185-74.083 70.77-74.083 130.5 0 59.613 18.339 100.285 74.167 130.583 8.655 4.708 12.96 14.731 10.417 24.25-15.901 59.344-56.099 105.97-103.5 137.583s-102.183 48.917-151.75 48.917c-46.222 0-73.5-12.917-94.833-23.583s-36.722-19.083-75.833-19.083c-39.111 0-54.5 8.417-75.833 19.083s-48.611 23.583-94.833 23.583zM341.333 704c39.111 0 54.5-8.417 75.833-19.083s48.611-23.583 94.833-23.583c46.222 0 73.5 12.917 94.833 23.583s36.722 19.083 75.833 19.083c39.328 0 87.52-14.697 128.083-41.75 37.558-25.049 66.741-59.606 81.167-102.227-53.641-37.383-81.25-91.967-81.25-154.689 0-62.914 27.366-119.36 81.917-156.712-20.078-67.452-58.523-133.202-100.417-184.455-22.013-26.93-44.647-49.169-64.583-64.083s-37.547-21.417-44.917-21.417c-39.111 0-61.203 9.072-84.667 19.5s-49.259 23.167-86 23.167c-36.741 0-62.536-12.738-86-23.167s-45.556-19.5-84.667-19.5c-11.835 0-33.973 10.32-57.917 33.167s-49.66 56.708-72.833 97.5c-46.347 81.585-82.583 190.802-82.583 296 0 106.577 25.864 181.445 64.583 229.083s90.303 69.583 148.75 69.583z" />
<glyph unicode="&#xe908;" glyph-name="mbri-arrow-down" d="M987.561 697.276l-426.626-426.176c-17.829-17.829 8.034-50.748 30.171-30.151l426.626 426.176c19.106 19.106-11.054 49.267-30.171 30.151zM6.27 667.107l469.275-469.3c18.792-18.792 49.66 10.689 30.184 30.164l-469.275 469.3c-20.063 20.063-49.2-11.149-30.184-30.164z" />
<glyph unicode="&#xe909;" glyph-name="mbri-arrow-next" d="M262.263-57.731c-8.352 8.357-8.35 21.812 0 30.171l426.176 426.626c8.35 8.359 21.799 8.357 30.151 0s8.35-21.812 0-30.171l-426.176-426.626c-8.35-8.359-21.799-8.357-30.151 0zM262.268 953.73c8.356 8.361 21.806 8.358 30.164 0l469.3-469.275c8.358-8.358 8.355-21.823 0-30.184s-21.806-8.358-30.164 0l-469.3 469.275c-8.359 8.358-8.356 21.823 0 30.184z" />
<glyph unicode="&#xe90a;" glyph-name="mbri-arrow-prev" d="M761.737-57.731c8.352 8.357 8.355 21.817 0 30.171l-426.51 426.46c-8.355 8.354-21.799 8.357-30.151 0s-8.355-21.817 0-30.171l426.51-426.46c8.355-8.354 21.799-8.357 30.151 0zM761.732 953.73c-8.356 8.361-21.806 8.358-30.164 0l-469.3-469.275c-8.358-8.358-8.356-21.823 0-30.184s21.806-8.358 30.164 0l469.3 469.275c8.359 8.358 8.356 21.823 0 30.184z" />
<glyph unicode="&#xe90b;" glyph-name="mbri-arrow-up" d="M987.561 198.263l-426.626 426.176c-17.829 17.829 8.034 50.748 30.171 30.151l426.626-426.176c19.106-19.106-11.054-49.267-30.171-30.151zM6.27 228.432l469.275 469.3c18.792 18.792 49.66-10.689 30.184-30.164l-469.275-469.3c-20.063-20.063-49.2 11.149-30.184 30.164z" />
<glyph unicode="&#xe90c;" glyph-name="mbri-bold" d="M213.36 938.406l-0.026-981.073c0.001-11.17 10.164-21.333 21.333-21.333h277.333c187.966 0 341.36 142.272 341.36 320 0 96.465-48.669 179.985-120 238.409 44.952 49.907 77.307 116.105 77.307 188.258 0 153.276-124.060 277.333-277.333 277.333h-298.667c-14.841 0-21.307-9.476-21.307-21.594zM256 917.333h277.333c130.374 0 234.667-104.294 234.667-234.667 0-65.711-31.735-130.731-75.974-173.594-9.373-8.734-7.975-26.206 2.667-33.335 71.118-50.846 116-130.010 116-219.738 0-153.195-132.099-277.163-298.693-277.333h-256zM341.333 426.667v-341.333c0.001-11.17 10.164-21.333 21.333-21.333h170.667c105.999 0 192 86.003 192 192 0 106.001-86.001 192-192 192h-170.667c-14.042 0-21.333-9.822-21.333-21.333zM384 405.333h149.333c83.1 0 149.333-66.231 149.333-149.333 0-83.098-66.234-149.333-149.333-149.333h-149.333zM341.36 810.667l-0.026-256c0.001-11.17 10.164-21.333 21.333-21.333h160.026c87.39 0 159.974 66.018 159.974 149.333 0 83.319-72.584 149.338-159.974 149.333h-160.026c-13.248 0-21.307-10.155-21.307-21.333zM384.026 789.333h138.667c66.252 0 117.307-48.158 117.307-106.667 0-58.505-51.055-106.667-117.307-106.667h-138.693z" />
<glyph unicode="&#xe90d;" glyph-name="mbri-bookmark" d="M106.667 960c-35.090 0-64-28.91-64-64v-917.333c0-8.91 2.028-18.885 8-26.667s16.087-12.563 25.333-14.667c18.493-4.207 36.899 1.882 61.333 12l374.5 154.667 374.833-154.667c25.935-9.451 42.84-16.207 61.333-12 9.247 2.103 19.362 6.885 25.333 14.667s8 17.757 8 26.667v917.333c0 35.090-28.91 64-64 64zM106.667 917.333h810.667c12.184 0 21.333-9.136 21.333-21.333v-917.333c-2.912-0.663-14.556 0.488-33.333 9.333l-384.167 158.667c-5.892 2.866-12.775 2.866-18.667 0l-383.833-158.667c-18.778-8.845-30.421-9.996-33.333-9.333v917.333c0 12.198 9.149 21.333 21.333 21.333zM234.667 789.333c-11.819 0-21.333-9.515-21.333-21.333s9.515-21.333 21.333-21.333h554.667c11.819 0 21.333 9.515 21.333 21.333s-9.515 21.333-21.333 21.333zM234.667 661.333c-11.819 0-21.333-9.515-21.333-21.333s9.515-21.333 21.333-21.333h554.667c11.819 0 21.333 9.515 21.333 21.333s-9.515 21.333-21.333 21.333zM234.667 533.333c-11.819 0-21.333-9.515-21.333-21.333s9.515-21.333 21.333-21.333h554.667c11.819 0 21.333 9.515 21.333 21.333s-9.515 21.333-21.333 21.333z" />
<glyph unicode="&#xe90e;" glyph-name="mbri-bootstrap" d="M64 960c-35.087 0-64-28.913-64-64v-896c0-35.087 28.913-64 64-64h896c35.087 0 64 28.913 64 64v896c0 35.087-28.913 64-64 64zM64 917.333h896c12.188 0 21.333-9.146 21.333-21.333v-896c0-12.188-9.146-21.333-21.333-21.333h-896c-12.188 0-21.333 9.146-21.333 21.333v896c0 12.188 9.146 21.333 21.333 21.333zM341.333 725.333v-512c0.001-11.17 10.164-21.332 21.333-21.333h128c46.298 0 93.854 10.927 130.667 38.667s61.333 73.381 61.333 132c0 59.805-25.36 92.836-38.667 108 12.619 16.239 38.667 47.99 38.667 105.333 0 58.367-28.086 102.787-64 130.667s-81.702 40-128 40h-128c-15.56 0-21.333-9.219-21.333-21.333zM384 704c11.879-0.079 35.509 0 106.667 0 39.036 0 76.457-10.32 102.667-30.667s46.667-49.937 46.667-97.333c0-59.633-36-92-36-92-8.197-7.931-8.197-22.736 0-30.667 0 0 36-31.821 36-90.667 0-47.144-18.146-76.847-45.333-97.333s-64.964-30.667-104-30.667c-71.158 0-94.788 0.078-106.667 0zM426.667 640v-128c0.001-11.17 10.164-21.332 21.333-21.333h64c19.186 0 39.145 5.862 56 20s29.333 37.298 29.333 65.333c0 27.875-12.519 51.186-29.333 65.333s-36.805 20-56 20h-64c-13.315 0-21.333-7.343-21.333-21.333zM469.333 618.667h42.667c9.516 0 21.326-3.929 29.333-10.667s13.333-15.414 13.333-32c0-17.027-5.469-25.403-13.333-32s-19.396-10.667-29.333-10.667h-42.667zM426.667 426.667v-128c0.001-11.17 10.164-21.332 21.333-21.333h64c19.195 0 39.185 5.853 56 20s29.333 37.459 29.333 65.333c0 28.035-12.479 51.195-29.333 65.333s-36.814 20-56 20h-64c-12.831 0-21.333-9.344-21.333-21.333zM469.333 405.333h42.667c9.938 0 21.469-4.070 29.333-10.667s13.333-14.973 13.333-32c0-16.586-5.326-25.263-13.333-32s-19.817-10.667-29.333-10.667h-42.667z" />
<glyph unicode="&#xe90f;" glyph-name="mbri-briefcase" d="M91.502 613.401c-7.739-7.729-9.173-21.828 1.334-32.324l169.893-169.16c23.982-24.004 49.056-40.854 78.604-46.624v-23.978c0-11.808 9.511-21.314 21.333-21.314s21.333 9.516 21.333 21.324v21.343h256v-21.351c0-11.808 9.51-21.314 21.333-21.314s21.229 9.507 21.333 21.314l0.213 23.978c29.548 5.771 54.712 22.62 78.694 46.624l169.391 169.18c9.59 9.58 10.437 22.888 1.344 31.971s-21.679 6.335-30.688-2.664l-169.394-169.182c-18.558-18.575-33.221-28.871-49.561-33.303l0.221 18.746c0.139 11.807-9.731 21.333-21.554 21.333s-21.333-9.525-21.333-21.333v-21.333h-256v21.333c0 11.808-9.511 21.333-21.333 21.333s-21.333-9.525-21.333-21.333v-18.746c-16.34 4.433-30.703 14.728-49.261 33.303l-169.893 169.166c-9.013 9.002-22.938 10.741-30.677 3.012zM362.667 874.667c-35.087 0-64-28.913-64-64v-42.667c-0.159-11.271 10.062-21.333 21.333-21.333s21.493 10.063 21.333 21.333v42.667c0 12.188 9.146 21.333 21.333 21.333h298.667c12.188 0 21.333-9.146 21.333-21.333v-42.667c-0.158-11.271 10.062-21.333 21.333-21.333s21.493 10.063 21.333 21.333v42.667c0 35.087-28.913 64-64 64zM64 704c-35.087 0-64-28.913-64-64v-554.667c0-35.087 28.913-64 64-64h896c35.087 0 64 28.913 64 64v554.667c0 35.087-28.913 64-64 64zM64 661.333h896c12.188 0 21.333-9.146 21.333-21.333v-554.667c0-12.188-9.146-21.333-21.333-21.333h-896c-12.188 0-21.333 9.146-21.333 21.333v554.667c0 12.188 9.146 21.333 21.333 21.333z" />
<glyph unicode="&#xe910;" glyph-name="mbri-browse" d="M64 832c-35.087 0-64-28.913-64-64v-640c0-35.087 28.913-64 64-64h896c35.087 0 64 28.913 64 64v640c0 35.087-28.913 64-64 64h-896zM64 789.333h896c12.188 0 21.333-9.146 21.333-21.333v-640c0-12.188-9.146-21.333-21.333-21.333h-896c-12.188 0-21.333 9.146-21.333 21.333v640c0 12.188 9.146 21.333 21.333 21.333zM106.667 746.667c-11.782 0-21.333-9.551-21.333-21.333s9.551-21.333 21.333-21.333c11.782 0 21.333 9.551 21.333 21.333s-9.551 21.333-21.333 21.333zM192 746.667c-11.782 0-21.333-9.551-21.333-21.333s9.551-21.333 21.333-21.333c11.782 0 21.333 9.551 21.333 21.333s-9.551 21.333-21.333 21.333zM277.333 746.667c-11.782 0-21.333-9.551-21.333-21.333s9.551-21.333 21.333-21.333c11.782 0 21.333 9.551 21.333 21.333s-9.551 21.333-21.333 21.333zM106.667 661.333c-11.819 0-21.333-9.515-21.333-21.333s9.515-21.333 21.333-21.333h810.667c11.819 0 21.333 9.515 21.333 21.333s-9.515 21.333-21.333 21.333h-810.667z" />
<glyph unicode="&#xe911;" glyph-name="mbri-bulleted-list" d="M1002.322 106.667h-682.667c-28.189 0-27.779 42.667 0 42.667h682.667c28.086 0 28.020-42.667 0-42.667zM1002.667 448h-682.667c-28.189 0-27.779 42.667 0 42.667h682.667c28.086 0 28.020-42.667 0-42.667zM106.667 234.667c-58.724 0-106.667-47.94-106.667-106.667s47.942-106.667 106.667-106.667c58.724 0 106.667 47.94 106.667 106.667s-47.942 106.667-106.667 106.667zM106.667 192c35.825 0 64-28.177 64-64s-28.175-64-64-64c-35.825 0-64 28.177-64 64s28.175 64 64 64zM106.667 575.454c-58.724 0-106.667-47.94-106.667-106.667s47.942-106.667 106.667-106.667c58.724 0 106.667 47.94 106.667 106.667s-47.942 106.667-106.667 106.667zM106.667 532.787c35.825 0 64-28.177 64-64s-28.175-64-64-64c-35.825 0-64 28.177-64 64s28.175 64 64 64zM106.667 917.333c-58.724 0-106.667-47.94-106.667-106.667s47.942-106.667 106.667-106.667c58.724 0 106.667 47.94 106.667 106.667s-47.942 106.667-106.667 106.667zM106.667 874.667c35.825 0 64-28.177 64-64s-28.175-64-64-64c-35.825 0-64 28.177-64 64s28.175 64 64 64zM1002.667 789.333h-682.667c-28.189 0-27.779 42.667 0 42.667h682.667c28.086 0 28.020-42.667 0-42.667z" />
<glyph unicode="&#xe912;" glyph-name="mbri-calendar" d="M234.667 874.667c-11.819 0-21.333-9.515-21.333-21.333v-170.667c0-11.819 9.515-21.333 21.333-21.333s21.333 9.515 21.333 21.333v170.667c0 11.819-9.515 21.333-21.333 21.333zM789.333 874.667c-11.819 0-21.333-9.515-21.333-21.333v-170.667c0-11.819 9.515-21.333 21.333-21.333s21.333 9.515 21.333 21.333v170.667c0 11.819-9.515 21.333-21.333 21.333zM64 789.333c-35.087 0-64-28.913-64-64v-640c0-35.087 28.913-64 64-64h896c35.087 0 64 28.913 64 64v640c0 35.087-28.913 64-64 64h-85.333c-14.266 0-21.333-10.565-21.333-21.333s6.909-21.333 21.333-21.333h85.333c12.188 0 21.333-9.146 21.333-21.333v-640c0-12.188-9.146-21.333-21.333-21.333h-896c-12.188 0-21.333 9.146-21.333 21.333v640c0 12.188 9.146 21.333 21.333 21.333h85.333c14.342 0 21.438 10.667 21.333 21.333s-7.408 21.333-21.333 21.333h-85.333zM320 789.333c-13.781 0-21.333-10.565-21.333-21.333s6.909-21.537 21.333-21.333h384c12.71 0 21.333 10.565 21.333 21.333s-6.367 21.333-21.333 21.333h-384zM149.333 533.333c-11.819 0-21.333-9.515-21.333-21.333s9.515-21.333 21.333-21.333h128c11.819 0 21.333 9.515 21.333 21.333s-9.515 21.333-21.333 21.333h-128zM448 533.333c-11.819 0-21.333-9.515-21.333-21.333s9.515-21.333 21.333-21.333h128c11.819 0 21.333 9.515 21.333 21.333s-9.515 21.333-21.333 21.333h-128zM746.667 533.333c-11.819 0-21.333-9.515-21.333-21.333s9.515-21.333 21.333-21.333h128c11.819 0 21.333 9.515 21.333 21.333s-9.515 21.333-21.333 21.333h-128zM149.333 320c-11.819 0-21.333-9.515-21.333-21.333s9.515-21.333 21.333-21.333h128c11.819 0 21.333 9.515 21.333 21.333s-9.515 21.333-21.333 21.333h-128zM448 320c-11.819 0-21.333-9.515-21.333-21.333s9.515-21.333 21.333-21.333h128c11.819 0 21.333 9.515 21.333 21.333s-9.515 21.333-21.333 21.333h-128zM746.667 320c-11.819 0-21.333-9.515-21.333-21.333s9.515-21.333 21.333-21.333h128c11.819 0 21.333 9.515 21.333 21.333s-9.515 21.333-21.333 21.333h-128z" />
<glyph unicode="&#xe913;" glyph-name="mbri-camera" d="M149.333 874.667c-35.087 0-64-28.913-64-64v-42.667c-0.204-14.425 10.565-21.333 21.333-21.333s21.537 6.909 21.333 21.333v42.667c0 12.188 9.146 21.333 21.333 21.333h170.667c12.188 0 21.333-9.146 21.333-21.333v-42.667c-0.204-14.425 10.565-21.333 21.333-21.333s21.537 6.909 21.333 21.333v42.667c0 35.087-28.913 64-64 64h-170.667zM64 704c-35.087 0-64-28.913-64-64v-554.667c0-35.087 28.913-64 64-64h896c35.087 0 64 28.913 64 64v554.667c0 35.087-28.913 64-64 64h-896zM64 661.333h896c12.188 0 21.333-9.146 21.333-21.333v-554.667c0-12.188-9.146-21.333-21.333-21.333h-896c-12.188 0-21.333 9.146-21.333 21.333v554.667c0 12.188 9.146 21.333 21.333 21.333zM789.333 618.667c-35.087 0-64-28.913-64-64s28.913-64 64-64h85.333c35.087 0 64 28.913 64 64s-28.913 64-64 64h-85.333zM512 576c-117.568 0-213.333-95.765-213.333-213.333s95.765-213.333 213.333-213.333c117.568 0 213.333 95.765 213.333 213.333s-95.765 213.333-213.333 213.333zM789.333 576h85.333c12.188 0 21.333-9.146 21.333-21.333s-9.146-21.333-21.333-21.333h-85.333c-12.188 0-21.333 9.146-21.333 21.333s9.146 21.333 21.333 21.333zM512 533.333c94.509 0 170.667-76.157 170.667-170.667s-76.157-170.667-170.667-170.667c-94.509 0-170.667 76.157-170.667 170.667s76.157 170.667 170.667 170.667z" />
<glyph unicode="&#xe914;" glyph-name="mbri-cart-add" d="M21.333 831.997c-14.425 0.204-21.333-10.565-21.333-21.333s6.909-21.537 21.333-21.333h111l102.833-452.75c0.078-0.277 0.161-0.557 0.25-0.833 3.642-13.528 9.283-27.097 19.417-38.5s26.045-19.917 43.833-19.917h512c17.64 0 33.636 7.941 44.333 19.417s16.892 25.937 19.417 41.083l21.333 128c4.671 28.114-37.503 35.115-42.167 7l-21.333-128c-2.775-16.651-10.86-24.833-21.583-24.833h-512c-16.016 0.465-18.726 14.449-22 26.667l-106.5 468.75c-2.22 9.715-10.868 16.599-20.833 16.583zM874.667 831.997c-82.222 0-149.333-67.111-149.333-149.333s67.112-149.333 149.333-149.333c82.222 0 149.333 67.112 149.333 149.333s-67.112 149.333-149.333 149.333zM874.667 789.33c59.163 0 106.667-47.504 106.667-106.667s-47.504-106.667-106.667-106.667c-59.163 0-106.667 47.504-106.667 106.667s47.504 106.667 106.667 106.667zM874.667 746.664c-11.819 0-21.333-9.515-21.333-21.333v-21.333h-21.333c-11.819 0-21.333-9.515-21.333-21.333s9.515-21.333 21.333-21.333h21.333v-21.333c0-11.819 9.515-21.333 21.333-21.333s21.333 9.515 21.333 21.333v21.333h21.333c11.819 0 21.333 9.515 21.333 21.333s-9.515 21.333-21.333 21.333h-21.333v21.333c0 11.819-9.515 21.333-21.333 21.333zM277.333 703.997c-11.819 0-21.333-9.515-21.333-21.333s9.515-21.333 21.333-21.333h384c11.819 0 21.333 9.515 21.333 21.333s-9.515 21.333-21.333 21.333zM320 575.997c-11.819 0-21.333-9.515-21.333-21.333s9.515-21.333 21.333-21.333h384c11.819 0 21.333 9.515 21.333 21.333s-9.515 21.333-21.333 21.333zM362.667 447.997c-11.819 0-21.333-9.515-21.333-21.333s9.515-21.333 21.333-21.333h384c11.819 0 21.333 9.515 21.333 21.333s-9.515 21.333-21.333 21.333zM341.333 234.664c-46.876 0-85.333-38.458-85.333-85.333s38.458-85.333 85.333-85.333c46.876 0 85.333 38.458 85.333 85.333s-38.458 85.333-85.333 85.333zM725.333 234.664c-46.876 0-85.333-38.458-85.333-85.333s38.458-85.333 85.333-85.333c46.876 0 85.333 38.458 85.333 85.333s-38.458 85.333-85.333 85.333zM341.333 191.997c23.817 0 42.667-18.85 42.667-42.667s-18.85-42.667-42.667-42.667c-23.817 0-42.667 18.85-42.667 42.667s18.85 42.667 42.667 42.667zM725.333 191.997c23.817 0 42.667-18.85 42.667-42.667s-18.85-42.667-42.667-42.667c-23.817 0-42.667 18.85-42.667 42.667s18.85 42.667 42.667 42.667z" />
<glyph unicode="&#xe915;" glyph-name="mbri-cart-full" d="M618.667 874.664c-5.543-0.087-11.167-2.329-15.083-6.25l-112.833-112.667-70.167 70.083c-8.317 8.277-21.766 8.277-30.083 0l-85.25-85.167c-20.226-18.041 11.861-50.442 30.083-30.083l70.167 70.083 70.25-70.083c8.317-8.277 21.766-8.277 30.083 0l112.833 112.667 112.833-112.667c8.317-8.277 21.766-8.277 30.083 0l70.417 70.083 70-70.083c18.331-20.48 50.402 11.959 30.083 30.083l-85.25 85.167c-8.317 8.277-21.766 8.277-30.083 0l-70.083-70.083-112.917 112.667c-4.079 4.084-9.309 6.339-15.083 6.25zM21.333 789.331c-14.425 0.204-21.333-10.565-21.333-21.333s6.909-21.537 21.333-21.333h111l102.833-452.75c0.078-0.277 0.161-0.557 0.25-0.833 3.642-13.528 9.283-27.097 19.417-38.5s26.045-19.917 43.833-19.917h574.417c17.821 0 33.718 8.695 43.75 20.083s15.608 24.768 19.417 38l86 298.667c5.773 20.056-3.352 39.816-16.083 51.5s-28.346 18.417-46.167 18.417h-682.667c-14.425 0.204-21.333-10.565-21.333-21.333s6.909-21.537 21.333-21.333h681.75c15.117 0 24.303-7.442 22.167-15.417l-86-298.667c-5.306-19.802-12.185-27.25-22.167-27.25h-574.417c-15.005 0-18.052 11.933-22 26.667l-106.5 468.75c-2.22 9.715-10.868 16.599-20.833 16.583zM320 533.331c-11.819 0-21.333-9.515-21.333-21.333s9.515-21.333 21.333-21.333h554.667c11.819 0 21.333 9.515 21.333 21.333s-9.515 21.333-21.333 21.333zM362.667 405.331c-11.819 0-21.333-9.515-21.333-21.333s9.515-21.333 21.333-21.333h469.333c11.819 0 21.333 9.515 21.333 21.333s-9.515 21.333-21.333 21.333zM341.333 191.997c-46.876 0-85.333-38.458-85.333-85.333s38.458-85.333 85.333-85.333c46.876 0 85.333 38.458 85.333 85.333s-38.458 85.333-85.333 85.333zM810.667 191.997c-46.876 0-85.333-38.458-85.333-85.333s38.458-85.333 85.333-85.333c46.876 0 85.333 38.458 85.333 85.333s-38.458 85.333-85.333 85.333zM341.333 149.331c23.817 0 42.667-18.85 42.667-42.667s-18.85-42.667-42.667-42.667c-23.817 0-42.667 18.85-42.667 42.667s18.85 42.667 42.667 42.667zM810.667 149.331c23.817 0 42.667-18.85 42.667-42.667s-18.85-42.667-42.667-42.667c-23.817 0-42.667 18.85-42.667 42.667s18.85 42.667 42.667 42.667z" />
<glyph unicode="&#xe916;" glyph-name="mbri-cash" d="M234.667 789.333c-14.425 0.204-21.333-10.565-21.333-21.333s6.909-21.537 21.333-21.333h725.333c12.188 0 21.333-9.146 21.333-21.333v-426.667c-0.205-14.425 10.565-21.333 21.333-21.333s21.537 6.909 21.333 21.333v426.667c0 35.087-28.913 64-64 64zM149.333 704c-14.425 0.204-21.333-10.565-21.333-21.333s6.909-21.537 21.333-21.333h725.333c12.188 0 21.333-9.146 21.333-21.333v-426.667c-0.205-14.425 10.565-21.333 21.333-21.333s21.537 6.909 21.333 21.333v426.667c0 35.087-28.913 64-64 64zM64 618.667c-35.087 0-64-28.913-64-64v-426.667c0-35.087 28.913-64 64-64h725.333c35.087 0 64 28.913 64 64v426.667c0 35.087-28.913 64-64 64zM64 576h725.333c12.188 0 21.333-9.146 21.333-21.333v-426.667c0-12.188-9.146-21.333-21.333-21.333h-725.333c-12.188 0-21.333 9.146-21.333 21.333v426.667c0 12.188 9.146 21.333 21.333 21.333zM106.667 533.333c-11.782-0.001-21.332-9.552-21.333-21.333v-85.333c-0.204-14.425 10.565-21.333 21.333-21.333s21.537 6.909 21.333 21.333v64h64c14.425-0.204 21.333 10.565 21.333 21.333s-6.909 21.537-21.333 21.333zM405.333 533.333c-105.786 0-192-86.214-192-192s86.214-192 192-192c105.786 0 192 86.214 192 192s-86.214 192-192 192zM661.333 490.667h64v-64c-0.205-14.425 10.565-21.333 21.333-21.333s21.537 6.909 21.333 21.333v85.333c-0.001 11.782-9.552 21.332-21.333 21.333h-85.333c-14.833 0-21.333-8.917-21.333-21.333s5.833-21.333 21.333-21.333zM405.333 490.667c82.727 0 149.333-66.606 149.333-149.333s-66.606-149.333-149.333-149.333c-82.727 0-149.333 66.606-149.333 149.333s66.606 149.333 149.333 149.333zM405.333 448c-35.001 0-64-28.994-64-64s28.999-64 64-64c11.938 0 21.333-9.064 21.333-21.333s-9.395-21.333-21.333-21.333h-42.667c-14.425 0.205-21.333-10.565-21.333-21.333s6.909-21.537 21.333-21.333h42.667c35.001 0 64 28.994 64 64s-28.999 64-64 64c-11.938 0-21.333 9.064-21.333 21.333s9.395 21.333 21.333 21.333h42.667c14.425-0.205 21.333 10.565 21.333 21.333s-6.909 21.537-21.333 21.333zM106.667 277.333c-12.043 0.188-21.522-9.29-21.333-21.333v-85.333c0.001-11.782 9.552-21.332 21.333-21.333h85.333c14.425-0.204 21.333 10.565 21.333 21.333s-6.909 21.537-21.333 21.333h-64v64c0.184 11.782-9.551 21.149-21.333 21.333zM746.667 277.333c-11.782-0.183-21.518-9.551-21.333-21.333v-64h-64c-14.425 0.205-21.333-10.565-21.333-21.333s6.909-21.537 21.333-21.333h85.333c11.782 0.001 21.332 9.552 21.333 21.333v85.333c0.188 12.043-9.29 21.522-21.333 21.333z" />
<glyph unicode="&#xe917;" glyph-name="mbri-change-style" d="M170.667 234.667c-30.501 0-58.868-8.954-82.417-27.583-23.586-18.658-45.583-48.779-45.583-79.083v-85.333c0-26.894-15.354-51.517-35.5-69.333-13.405-13.405-7.167-37.333 14.167-37.333h42.667c49.862 1.531 103.678 8.589 150.25 35.5 23.356 13.496 44.527 31.883 60 55.167 15.535 23.377 24.417 50.974 24.417 80 0 33.544-14.373 66.278-38.083 89.917-23.7 23.628-56.515 38.083-89.917 38.083zM170.667 192c22.148-0.512 44.107-10.071 59.75-25.667 15.632-15.585 25.583-38.333 25.583-59.667 0-19.247-6.15-39.588-17.333-56.417-11.245-16.922-27.309-31.177-45.75-41.833-36.758-21.241-82.371-28.249-128.667-29.75 11.099 19.112 21.083 41.685 21.083 64v85.333c0 19.293 14.022 33.554 29.333 45.667 15.349 12.142 36.201 18.791 56 18.333zM1002.667 960c-3.376 0.059-6.217-0.683-9.25-2.167-192.024-92.8-372.971-208.5-537.667-344-39.276-32.313-79.192-66.993-110.417-110.75-29.314-41.080-46.667-92.408-46.667-140.417 0-34.108 14.296-66.967 38.333-90.667 23.623-23.29 56.021-37.333 89.667-37.333 47.596 0 98.909 15.911 140.25 44.833 44.225 30.94 78.766 71.245 110.917 110.667 135.055 165.594 250.751 346.902 344 539.167 6.8 13.97-3.635 30.29-19.167 30.667zM947.417 883.417c-85.576-164.803-185.22-322.431-302.583-466.333-31.621-38.771-63.966-75.766-102.417-102.667-33.51-23.444-78.013-37.083-115.75-37.083-21.448 0-44.058 9.611-59.667 25-15.779 15.557-25.667 38.528-25.667 60.333 0 37.325 14.697 81.992 38.667 115.583 27.366 38.35 64.299 70.811 102.917 102.583 143.031 117.676 300.062 217.339 464.5 302.583z" />
<glyph unicode="&#xe918;" glyph-name="mbri-chat" d="M64 917.333c-35.087 0-64-28.913-64-64v-640c0-35.087 28.913-64 64-64h106.667v-149.333c0.005-11.78 9.555-21.327 21.335-21.327 5.889 0 11.221 2.386 15.081 6.244l164.417 164.417h588.5c35.087 0 64 28.913 64 64v640c0 35.087-28.913 64-64 64h-896zM64 874.667h896c12.188 0 21.333-9.146 21.333-21.333v-640c0-12.188-9.146-21.333-21.333-21.333h-597.333c-5.891-0.001-11.223-2.389-15.083-6.25l-134.25-134.25v119.167c-0.001 11.782-9.552 21.332-21.333 21.333h-128c-12.188 0-21.333 9.146-21.333 21.333v640c0 12.188 9.146 21.333 21.333 21.333zM149.333 746.667c-11.819 0-21.333-9.515-21.333-21.333s9.515-21.333 21.333-21.333h725.333c11.819 0 21.333 9.515 21.333 21.333s-9.515 21.333-21.333 21.333h-725.333zM149.333 618.667c-11.819 0-21.333-9.515-21.333-21.333s9.515-21.333 21.333-21.333h725.333c11.819 0 21.333 9.515 21.333 21.333s-9.515 21.333-21.333 21.333h-725.333zM149.333 490.667c-11.819 0-21.333-9.515-21.333-21.333s9.515-21.333 21.333-21.333h725.333c11.819 0 21.333 9.515 21.333 21.333s-9.515 21.333-21.333 21.333h-725.333z" />
<glyph unicode="&#xe919;" glyph-name="mbri-clock" d="M128 469.333c0-11.782-9.551-21.333-21.333-21.333s-21.333 9.551-21.333 21.333c0 11.782 9.551 21.333 21.333 21.333s21.333-9.551 21.333-21.333zM512 85.333c0-11.782-9.551-21.333-21.333-21.333s-21.333 9.551-21.333 21.333c0 11.782 9.551 21.333 21.333 21.333s21.333-9.551 21.333-21.333zM896 469.333c0-11.782-9.551-21.333-21.333-21.333s-21.333 9.551-21.333 21.333c0 11.782 9.551 21.333 21.333 21.333s21.333-9.551 21.333-21.333zM512 853.333c0-11.782-9.551-21.333-21.333-21.333s-21.333 9.551-21.333 21.333c0 11.782 9.551 21.333 21.333 21.333s21.333-9.551 21.333-21.333zM490.667 789.333c-11.819 0-21.333-9.515-21.333-21.333v-238.667c-24.705-8.895-42.667-32.401-42.667-60 0-35.094 28.906-64 64-64 27.599 0 51.105 17.961 60 42.667h153.333c11.819 0 21.333 9.515 21.333 21.333s-9.515 21.333-21.333 21.333h-153.333c-6.48 17.996-20.671 32.187-38.667 38.667v238.667c0 11.819-9.515 21.333-21.333 21.333zM490.667 490.667c12.035 0 21.333-9.299 21.333-21.333s-9.299-21.333-21.333-21.333c-12.035 0-21.333 9.299-21.333 21.333s9.299 21.333 21.333 21.333zM490.667 960c-270.735 0-490.667-219.932-490.667-490.667s219.932-490.667 490.667-490.667c270.735 0 490.667 219.932 490.667 490.667s-219.932 490.667-490.667 490.667zM490.667 917.333c247.676 0 448-200.324 448-448s-200.324-448-448-448c-247.676 0-448 200.324-448 448s200.324 448 448 448z" />
<glyph unicode="&#xe91a;" glyph-name="mbri-close" d="M1017.515 953.898c-8.457 8.197-21.959 7.986-30.156-0.471l-426.486-426.448c-19.124-18.589 10.944-49.364 30.156-30.153l426.486 426.448c8.645 8.378 8.645 22.247 0 30.625zM463.102 399.533c-8.457 8.197-21.959 7.986-30.156-0.471l-426.486-426.448c-19.602-19.053 10.869-49.993 30.156-30.154l426.486 426.448c8.645 8.378 8.645 22.246 0 30.625zM36.617 953.45c-18.688 18.792-49.422-10.76-30.157-30.154l980.921-980.836c19.603-20.009 50.001 10.387 30.157 30.154z" />
<glyph unicode="&#xe91b;" glyph-name="mbri-cloud" d="M568.5 789.333c-54.641 0-109.16-10.792-158.083-35.083-61.52-30.546-111.422-75.363-144.333-135.583-70.221 2.857-140.761-27.192-190.75-76.833-53.354-52.983-81.189-129.365-74.333-204.25 5.424-59.25 32.128-115.838 74.333-157.75 42.208-41.914 99.148-68.115 158.417-73.124 0.61-0.055 1.221-0.081 1.833-0.085l596.417 0.041c20.018 0.001 41.141 0.137 63.167 4.333 22.046 4.201 43.738 12.377 62.917 25.583 19.202 13.222 35.044 30.879 46.167 51.25 11.086 20.304 17.303 42.759 19.167 65.333 3.63 43.958-9.357 88.417-35.917 123.583-23.172 30.681-54.773 51.22-91.5 62.167 3.015 77.19-20.458 154.932-67.083 216.667-50.018 66.227-124.7 112.602-206.25 128-17.872 3.377-35.979 5.752-54.167 5.752zM567.5 746.667c16.177 0 31.757-2.142 47.333-5.083 70.809-13.37 136.655-54.165 180.083-111.667s64.677-131.484 58.167-203.25c-0.975-10.858 6.392-19.204 17.083-21.333 32.639-6.437 63.267-27.68 83.333-54.25 20.068-26.571 30.154-61.271 27.417-94.417-1.408-17.048-6.2-33.742-14.167-48.333-7.93-14.524-19.29-27.258-32.833-36.583-13.567-9.342-29.741-15.676-46.75-18.917-17.029-3.245-35.428-3.5-55.167-3.5h-595.25c-48.895 4.216-96.597 26.255-131.417 60.833-34.904 34.661-57.351 82.282-61.833 131.25-5.644 61.656 17.897 126.452 61.833 170.083 43.94 43.634 108.878 70.575 170.5 64.5 8.81-0.853 17.231 2.701 21.167 10.629 28.25 56.669 75.697 101.292 132.417 129.455 42.541 21.122 90.496 30.583 138.083 30.583z" />
<glyph unicode="&#xe91c;" glyph-name="mbri-code" d="M672.206 743.685c-10.128 6.005-23.208 2.665-29.215-7.46l-341.16-554.125c-13.934-22.67 21.339-46.745 36.344-22.324l341.16 554.125c6.464 10.159 3.235 23.651-7.129 29.784zM773.697 654.58c8.006 8.6 21.461 9.1 30.083 1.118l213.172-191.851c9.397-8.466 9.397-23.205 0-31.671l-213.113-191.792c-20.188-18.167-48.835 13.483-28.552 31.73l195.511 175.886-195.511 176.027c-9.052 7.913-9.772 21.743-1.59 30.552zM250.303 654.58c-8.006 8.6-21.461 9.1-30.083 1.118l-213.172-191.851c-9.397-8.466-9.397-23.205 0-31.671l213.113-191.792c20.199-18.209 49.284 13.112 28.552 31.73l-195.511 175.886 195.511 176.027c9.052 7.913 9.772 21.743 1.59 30.552z" />
<glyph unicode="&#xe91d;" glyph-name="mbri-contact-form" d="M149.333 533.333c-35.087 0-64-28.913-64-64v-170.667c0-35.087 28.913-64 64-64h128c35.087 0 64 28.913 64 64v170.667c0 35.087-28.913 64-64 64h-128zM149.333 490.667h128c12.188 0 21.333-9.146 21.333-21.333v-170.667c0-12.188-9.146-21.333-21.333-21.333h-128c-12.188 0-21.333 9.146-21.333 21.333v170.667c0 12.188 9.146 21.333 21.333 21.333zM405.333 277.333h469.333c11.819 0 21.333-9.515 21.333-21.333s-9.515-21.333-21.333-21.333h-469.333c-11.819 0-21.333 9.515-21.333 21.333s9.515 21.333 21.333 21.333zM234.667 874.667c-11.819 0-21.333-9.515-21.333-21.333v-170.667c0-11.819 9.515-21.333 21.333-21.333s21.333 9.515 21.333 21.333v170.667c0 11.819-9.515 21.333-21.333 21.333zM789.333 874.667c-11.819 0-21.333-9.515-21.333-21.333v-170.667c0-11.819 9.515-21.333 21.333-21.333s21.333 9.515 21.333 21.333v170.667c0 11.819-9.515 21.333-21.333 21.333zM64 789.333c-35.087 0-64-28.913-64-64v-640c0-35.087 28.913-64 64-64h896c35.087 0 64 28.913 64 64v640c0 35.087-28.913 64-64 64h-85.333c-14.266 0-21.333-10.565-21.333-21.333s6.909-21.333 21.333-21.333h85.333c12.188 0 21.333-9.146 21.333-21.333v-640c0-12.188-9.146-21.333-21.333-21.333h-896c-12.188 0-21.333 9.146-21.333 21.333v640c0 12.188 9.146 21.333 21.333 21.333h85.333c14.342 0 21.438 10.667 21.333 21.333s-7.408 21.333-21.333 21.333zM320 789.333c-13.781 0-21.333-10.565-21.333-21.333s6.909-21.537 21.333-21.333h384c12.71 0 21.333 10.565 21.333 21.333s-6.367 21.333-21.333 21.333zM405.333 533.333c-11.819 0-21.333-9.515-21.333-21.333s9.515-21.333 21.333-21.333h469.333c11.819 0 21.333 9.515 21.333 21.333s-9.515 21.333-21.333 21.333zM405.333 405.333c-11.819 0-21.333-9.515-21.333-21.333s9.515-21.333 21.333-21.333h469.333c11.819 0 21.333 9.515 21.333 21.333s-9.515 21.333-21.333 21.333z" />
<glyph unicode="&#xe91e;" glyph-name="mbri-credit-card" d="M768 320c-46.892 0.030-85.333-38.458-85.333-85.333s38.441-85.363 85.333-85.333c15.775 0.010 29.401 8.299 42.667 16.417 13.265-8.118 26.892-16.407 42.667-16.417 46.892-0.030 85.333 38.458 85.333 85.333s-38.441 85.363-85.333 85.333c-15.775-0.010-29.401-8.299-42.667-16.417-13.265 8.118-26.892 16.407-42.667 16.417zM768 277.333c10.471-0.007 20.59-3.877 28.417-10.917 8.107-7.275 20.393-7.275 28.5 0 7.826 7.040 17.946 10.91 28.417 10.917 23.8 0.015 42.667-18.85 42.667-42.667s-18.866-42.682-42.667-42.667c-10.471 0.007-20.59 3.877-28.417 10.917-8.107 7.275-20.393 7.275-28.5 0-7.826-7.040-17.946-10.91-28.417-10.917-23.8-0.015-42.667 18.85-42.667 42.667s18.866 42.682 42.667 42.667zM64 832c-35.087 0-64-28.913-64-64v-426.667c0-35.087 28.913-64 64-64h42.667c29.35 0 27.183 42.667 0 42.667h-42.667c-12.188 0-21.333 9.146-21.333 21.333v192h64c11.819 0 21.333 9.515 21.333 21.333s-9.515 21.333-21.333 21.333h-64v128h768v-21.333c0-28.519 42.667-27.86 42.667 0v85.333c0 35.087-28.913 64-64 64zM64 789.333h725.333c12.188 0 21.333-9.146 21.333-21.333v-21.333h-768v21.333c0 12.188 9.146 21.333 21.333 21.333zM533.333 234.667h42.667c11.819 0 21.333-9.515 21.333-21.333s-9.515-21.333-21.333-21.333h-42.667c-11.819 0-21.333 9.515-21.333 21.333s9.515 21.333 21.333 21.333zM405.333 234.667h42.667c11.819 0 21.333-9.515 21.333-21.333s-9.515-21.333-21.333-21.333h-42.667c-11.819 0-21.333 9.515-21.333 21.333s9.515 21.333 21.333 21.333zM277.333 234.667h42.667c11.819 0 21.333-9.515 21.333-21.333s-9.515-21.333-21.333-21.333h-42.667c-11.819 0-21.333 9.515-21.333 21.333s9.515 21.333 21.333 21.333zM490.667 448h426.667c11.819 0 21.333-9.515 21.333-21.333s-9.515-21.333-21.333-21.333h-426.667c-11.819 0-21.333 9.515-21.333 21.333s9.515 21.333 21.333 21.333zM704 533.333h213.333c11.819 0 21.333-9.515 21.333-21.333s-9.515-21.333-21.333-21.333h-213.333c-11.819 0-21.333 9.515-21.333 21.333s9.515 21.333 21.333 21.333zM490.667 533.333h128c11.819 0 21.333-9.515 21.333-21.333s-9.515-21.333-21.333-21.333h-128c-11.819 0-21.333 9.515-21.333 21.333s9.515 21.333 21.333 21.333zM277.333 533.333c-11.782-0.001-21.332-9.552-21.333-21.333v-170.667c0.001-11.782 9.552-21.332 21.333-21.333h128c11.782 0.001 21.332 9.552 21.333 21.333v170.667c-0.001 11.782-9.552 21.332-21.333 21.333zM298.667 490.667h85.333v-128h-85.333zM234.667 618.667c-35.087 0-64-28.913-64-64v-426.667c0-35.087 28.913-64 64-64h725.333c35.087 0 64 28.913 64 64v426.667c0 35.087-28.913 64-64 64zM234.667 576h725.333c12.188 0 21.333-9.146 21.333-21.333v-426.667c0-12.188-9.146-21.333-21.333-21.333h-725.333c-12.188 0-21.333 9.146-21.333 21.333v426.667c0 12.188 9.146 21.333 21.333 21.333z" />
<glyph unicode="&#xe91f;" glyph-name="mbri-cursor-click" d="M133.984 70.453c-8.158 8.417-7.948 21.854 0.469 30.012l42.439 42.439c19.616 19.616 49.543-10.481 30.012-30.012l-42.439-42.439c-8.339-8.604-22.142-8.604-30.481 0zM816.651 753.12c-8.158 8.417-7.948 21.854 0.469 30.012l42.439 42.439c18.672 19.207 49.134-11.422 30.012-30.012l-42.439-42.439c-8.339-8.604-22.142-8.604-30.481 0zM133.984 825.547c-8.158-8.417-7.948-21.854 0.469-30.012l42.439-42.439c19.094-19.094 49.623 10.948 30.012 30.012l-42.439 42.439c-8.339 8.604-22.142 8.604-30.481 0zM0 469.333c0 11.819 9.515 21.333 21.333 21.333h85.333c11.819 0 21.333-9.515 21.333-21.333s-9.515-21.333-21.333-21.333h-85.333c-11.819 0-21.333 9.515-21.333 21.333zM533.333 960c11.819 0 21.333-9.515 21.333-21.333v-85.333c0-11.819-9.515-21.333-21.333-21.333s-21.333 9.515-21.333 21.333v85.333c0 11.819 9.515 21.333 21.333 21.333zM342.028 634.956l170.661-682.791c3.913-15.508 22.862-21.357 34.832-10.752l177.813 157.279 155.592-156.445c8.331-8.329 21.835-8.329 30.166 0l106.663 106.686c8.328 8.333 8.328 21.839 0 30.172l-155.578 155.561 155.578 155.662c10.982 11.024 6.853 29.719-7.75 35.090l-639.978 234.709c-23.152 6.205-31.272-12.955-27.999-25.171zM393.11 606.284l570.897-209.371-147.078-147.11c-8.328-8.333-8.328-21.839 0-30.172l155.578-155.612-76.497-76.514-155.578 155.612c-7.993 7.975-20.815 8.34-29.249 0.833l-165.661-147.277z" />
<glyph unicode="&#xe920;" glyph-name="mbri-cust-feedback" d="M646.11 697.577l-240.686-240.778-70.163 70.19c-18.715 18.715-49.603-10.683-30.137-30.149l85.232-85.264c8.323-8.324 21.815-8.324 30.137 0l255.755 255.852c8.583 8.388 8.556 22.207 0.034 30.47s-21.969 8.079-30.171-0.321zM64 917.33c-35.087 0-64-28.913-64-64v-640c0-35.087 28.913-64 64-64h106.667v-149.333c0.007-19 22.977-28.514 36.417-15.083l164.417 164.417h588.5c35.087 0 64 28.913 64 64v640c0 35.087-28.913 64-64 64zM64 874.664h896c12.188 0 21.333-9.146 21.333-21.333v-640c0-12.188-9.146-21.333-21.333-21.333h-597.333c-5.658-0.001-11.083-2.249-15.083-6.25l-134.25-134.25v119.167c-0.001 11.782-9.552 21.332-21.333 21.333h-128c-12.188 0-21.333 9.146-21.333 21.333v640c0 12.188 9.146 21.333 21.333 21.333z" />
<glyph unicode="&#xe921;" glyph-name="mbri-database" d="M64 960c-35.087 0-64-28.913-64-64v-810.667c0-35.087 28.913-64 64-64h21.333v-64c0.001-11.782 9.552-21.332 21.333-21.333h128c11.782 0.001 21.332 9.552 21.333 21.333v64h512v-64c0.001-11.782 9.552-21.332 21.333-21.333h128c11.782 0.001 21.332 9.552 21.333 21.333v64h21.333c35.087 0 64 28.913 64 64v810.667c0 35.087-28.913 64-64 64h-896zM64 917.333h896c12.188 0 21.333-9.146 21.333-21.333v-810.667c0-12.188-9.146-21.333-21.333-21.333h-896c-12.188 0-21.333 9.146-21.333 21.333v810.667c0 12.188 9.146 21.333 21.333 21.333zM149.333 789.333c-11.782 0-21.333-9.551-21.333-21.333s9.551-21.333 21.333-21.333c11.782 0 21.333 9.551 21.333 21.333s-9.551 21.333-21.333 21.333zM277.333 789.333c-11.782 0-21.333-9.551-21.333-21.333s9.551-21.333 21.333-21.333c11.782 0 21.333 9.551 21.333 21.333s-9.551 21.333-21.333 21.333zM405.333 789.333c-11.782 0-21.333-9.551-21.333-21.333s9.551-21.333 21.333-21.333c11.782 0 21.333 9.551 21.333 21.333s-9.551 21.333-21.333 21.333zM106.667 661.333c-11.819 0-21.333-9.515-21.333-21.333s9.515-21.333 21.333-21.333h810.667c11.819 0 21.333 9.515 21.333 21.333s-9.515 21.333-21.333 21.333h-810.667zM277.333 490.667c-11.782 0-21.333-9.551-21.333-21.333s9.551-21.333 21.333-21.333c11.782 0 21.333 9.551 21.333 21.333s-9.551 21.333-21.333 21.333zM405.333 490.667c-11.782 0-21.333-9.551-21.333-21.333s9.551-21.333 21.333-21.333c11.782 0 21.333 9.551 21.333 21.333s-9.551 21.333-21.333 21.333zM533.333 490.667c-11.782 0-21.333-9.551-21.333-21.333s9.551-21.333 21.333-21.333c11.782 0 21.333 9.551 21.333 21.333s-9.551 21.333-21.333 21.333zM106.667 362.667c-11.819 0-21.333-9.515-21.333-21.333s9.515-21.333 21.333-21.333h810.667c11.819 0 21.333 9.515 21.333 21.333s-9.515 21.333-21.333 21.333h-810.667zM149.333 192c-11.782 0-21.333-9.551-21.333-21.333s9.551-21.333 21.333-21.333c11.782 0 21.333 9.551 21.333 21.333s-9.551 21.333-21.333 21.333zM277.333 192c-11.782 0-21.333-9.551-21.333-21.333s9.551-21.333 21.333-21.333c11.782 0 21.333 9.551 21.333 21.333s-9.551 21.333-21.333 21.333zM405.333 192c-11.782 0-21.333-9.551-21.333-21.333s9.551-21.333 21.333-21.333c11.782 0 21.333 9.551 21.333 21.333s-9.551 21.333-21.333 21.333zM128 21.333h85.333v-42.667h-85.333v42.667zM810.667 21.333h85.333v-42.667h-85.333v42.667z" />
<glyph unicode="&#xe922;" glyph-name="mbri-delivery" d="M21.333 362.667h85.333c11.819 0 21.333-9.515 21.333-21.333s-9.515-21.333-21.333-21.333h-85.333c-11.819 0-21.333 9.515-21.333 21.333s9.515 21.333 21.333 21.333zM21.333 533.333h85.333c11.819 0 21.333-9.515 21.333-21.333s-9.515-21.333-21.333-21.333h-85.333c-11.819 0-21.333 9.515-21.333 21.333s9.515 21.333 21.333 21.333zM21.333 704h85.333c11.819 0 21.333-9.515 21.333-21.333s-9.515-21.333-21.333-21.333h-85.333c-11.819 0-21.333 9.515-21.333 21.333s9.515 21.333 21.333 21.333zM548.251 569.935c-8.415 8.222-21.9 8.064-30.12-0.353l-112.798-112.813-70.095 70.148c-19.169 19.169-49.432-11.347-30.12-30.131l85.182-85.213c8.318-8.319 21.802-8.319 30.12 0l127.831 127.879c8.554 8.36 8.554 22.124 0 30.484zM852.5 320c-46.876 0-85.333-38.458-85.333-85.333s38.458-85.333 85.333-85.333c46.876 0 85.333 38.458 85.333 85.333s-38.458 85.333-85.333 85.333zM852.5 277.333c23.817 0 42.667-18.85 42.667-42.667s-18.85-42.667-42.667-42.667c-23.817 0-42.667 18.85-42.667 42.667s18.85 42.667 42.667 42.667zM384 320c-46.876 0-85.333-38.458-85.333-85.333s38.458-85.333 85.333-85.333c46.876 0 85.333 38.458 85.333 85.333s-38.458 85.333-85.333 85.333zM384 277.333c23.817 0 42.667-18.85 42.667-42.667s-18.85-42.667-42.667-42.667c-23.817 0-42.667 18.85-42.667 42.667s18.85 42.667 42.667 42.667zM746.667 277.333c27.663 0 28.687 42.667 0 42.667h-21.333v298.667h117.583l138.417-178v-120.667h-21.333c-28.006 0-28.344-42.667 0-42.667h21.333c23.268 0 42.667 19.398 42.667 42.667v128c-0.005 4.74-1.588 9.343-4.5 13.083l-149.333 192c-4.038 5.2-10.25 8.244-16.833 8.25h-128v42.667c0 23.268-19.398 42.667-42.667 42.667h-469.333c-23.268 0-42.667-19.398-42.667-42.667v-384c0-23.268 19.398-42.667 42.667-42.667h64c27.651-0.393 28.628 42.667 0 42.667h-64v384h469.333v-384h-192c-27.656 0-28.134-43.065 0-42.667z" />
<glyph unicode="&#xe923;" glyph-name="mbri-desktop" d="M512 256c0-11.782-9.551-21.333-21.333-21.333s-21.333 9.551-21.333 21.333c0 11.782 9.551 21.333 21.333 21.333s21.333-9.551 21.333-21.333zM106.667 362.667h768c11.819 0 21.333-9.515 21.333-21.333s-9.515-21.333-21.333-21.333h-768c-11.819 0-21.333 9.515-21.333 21.333s9.515 21.333 21.333 21.333zM64 874.667c-35.087 0-64-28.913-64-64v-597.333c0-35.087 28.913-64 64-64h320v-85.333h-64c-11.819 0-21.333-9.515-21.333-21.333s9.515-21.333 21.333-21.333h341.333c11.819 0 21.333 9.515 21.333 21.333s-9.515 21.333-21.333 21.333h-64v85.333h320c35.087 0 64 28.913 64 64v597.333c0 35.087-28.913 64-64 64h-853.333zM64 832h853.333c12.188 0 21.333-9.146 21.333-21.333v-597.333c0-12.188-9.146-21.333-21.333-21.333h-853.333c-12.188 0-21.333 9.146-21.333 21.333v597.333c0 12.188 9.146 21.333 21.333 21.333zM426.667 149.333h128v-85.333h-128v85.333z" />
<glyph unicode="&#xe924;" glyph-name="mbri-devices" d="M277.333 192c-28.801 0-53.428-18.948-61.333-45.333l-113.333-18.667c-10.199-1.946-17.516-10.952-17.333-21.333v-85.333c-0.183-10.381 7.134-19.387 17.333-21.333l113.333-18.667c7.905-26.385 32.533-45.333 61.333-45.333h128c28.801 0 53.428 18.948 61.333 45.333l113.333 18.667c10.199 1.946 17.516 10.952 17.333 21.333v85.333c0.183 10.381-7.134 19.387-17.333 21.333l-113.333 18.667c-7.905 26.385-32.533 45.333-61.333 45.333zM277.333 149.333h128c12.188 0 21.333-9.146 21.333-21.333v-128c0-12.188-9.146-21.333-21.333-21.333h-128c-12.188 0-21.333 9.146-21.333 21.333v128c0 12.188 9.146 21.333 21.333 21.333zM213.333 102.667v-77.333l-85.333 14.667v48zM469.333 102.667l85.333-14.667v-48l-85.333-14.667zM64 917.333c-35.087 0-64-28.913-64-64v-512c0-35.087 28.913-64 64-64h511.696c11.271-0.159 21.637 10.062 21.637 21.333s-10.367 21.493-21.637 21.333h-511.696c-12.188 0-21.333 9.146-21.333 21.333v512c0 12.188 9.146 21.333 21.333 21.333h810.667c12.188 0 21.333-9.146 21.333-21.333v-213.333c-0.158-11.271 10.062-21.181 21.333-21.181s21.493 9.911 21.333 21.181v213.333c0 35.087-28.913 64-64 64zM170.667 789.333v-384c0-24.563 17.268-42.667 42.667-42.667h362.667c11.271-0.158 21.637 10.062 21.637 21.333s-10.367 21.493-21.637 21.333h-362.667v384h597.333v-149.333c-0.158-11.271 10.062-21.485 21.333-21.485s21.493 10.215 21.333 21.485v149.333c0 26.458-18.978 42.667-42.667 42.667h-597.333c-24.090 0-42.667-17.969-42.667-42.667zM832 64c11.819 0 21.333-9.515 21.333-21.333s-9.515-21.333-21.333-21.333c-11.819 0-21.333 9.515-21.333 21.333s9.515 21.333 21.333 21.333zM789.333 490.667h85.333c11.819 0 21.333-9.515 21.333-21.333s-9.515-21.333-21.333-21.333h-85.333c-11.819 0-21.333 9.515-21.333 21.333s9.515 21.333 21.333 21.333zM704 576c-35.087 0-64-28.913-64-64v-512c0-35.087 28.913-64 64-64h256c35.087 0 64 28.913 64 64v512c0 35.087-28.913 64-64 64zM704 533.333h256c12.188 0 21.333-9.146 21.333-21.333v-512c0-12.188-9.146-21.333-21.333-21.333h-256c-12.188 0-21.333 9.146-21.333 21.333v512c0 12.188 9.146 21.333 21.333 21.333zM106.667 618.667c11.819 0 21.333-9.515 21.333-21.333s-9.515-21.333-21.333-21.333c-11.819 0-21.333 9.515-21.333 21.333s9.515 21.333 21.333 21.333z" />
<glyph unicode="&#xe925;" glyph-name="mbri-down" d="M960 447.992c-5.535-0.154-11.375-2.454-15.245-6.414l-454.088-454.099-453.949 453.849c-19.206 20.003-50.161-10.956-30.16-30.157l468.974-468.927c8.329-8.325 21.83-8.325 30.16 0l469.224 469.177c13.032 12.74 5.155 36.571-14.914 36.571zM490.667 960c11.819 0 21.333-9.515 21.333-21.333v-853.333c0-11.819-9.515-21.333-21.333-21.333s-21.333 9.515-21.333 21.333v853.333c0 11.819 9.515 21.333 21.333 21.333z" />
<glyph unicode="&#xe926;" glyph-name="mbri-download" d="M548.427 441.72c-8.318 8.316-21.804 8.316-30.122 0l-127.842-127.833c-19.192-19.192 10.227-50.015 30.122-30.12l112.781 112.777 112.722-112.718c19.661-19.661 49.585 11.204 30.122 30.12zM533.337 320c11.818 0 21.332-9.516 21.332-21.333v-213.336c0-11.817-9.514-21.331-21.332-21.331s-21.332 9.514-21.332 21.331v213.336c0 11.817 9.514 21.333 21.332 21.333zM568.503 831.914c-56.503 0-109.155-10.79-158.077-35.079-61.518-30.543-111.418-75.354-144.328-135.568-70.218 2.857-140.756-27.189-190.742-76.825-53.352-52.977-81.186-129.351-74.33-204.227 5.424-59.243 32.127-115.825 74.33-157.732 42.206-41.909 99.616-73.122 158.41-73.158h43.582c11.818 0 21.332 9.514 21.332 21.331s-9.514 21.331-21.332 21.331h-40.582c-48.893 4.216-96.593 26.253-131.411 60.826-34.902 34.657-57.348 82.273-61.831 131.235-5.644 61.649 17.896 126.438 61.831 170.064 43.938 43.629 108.874 70.567 170.493 64.493 8.809-0.853 17.231 2.655 21.166 10.582 28.249 56.663 75.694 101.326 132.411 129.485 42.539 21.12 90.25 30.58 138.078 30.58 15.84 0 31.756-2.142 47.331-5.083 70.806-13.368 136.65-54.159 180.076-111.654s64.674-131.469 58.164-203.227c-0.975-10.857 6.391-19.202 17.083-21.331 32.638-6.436 63.264-27.677 83.33-54.244s30.152-61.264 27.416-94.406c-1.408-17.046-6.2-33.739-14.166-48.328-7.929-14.522-19.289-27.255-32.832-36.579-13.566-9.341-29.74-15.674-46.748-18.915-17.029-3.245-35.426-3.5-55.165-3.5h-42.665c-11.818 0-21.332-9.514-21.332-21.331s9.514-21.331 21.332-21.331h42.665c20.017 0.001 41.14 0.137 63.164 4.333 22.045 4.2 43.736 12.376 62.914 25.58 19.201 13.221 35.043 30.875 46.165 51.244 11.085 20.302 17.302 42.754 19.166 65.326 3.629 43.953-9.357 88.407-35.915 123.569-23.171 30.678-54.771 51.214-91.496 62.16 3.015 77.182-20.457 154.914-67.081 216.642-50.016 66.219-124.695 112.589-206.242 127.986-17.872 3.376-35.978 5.749-54.165 5.749z" />
<glyph unicode="&#xe927;" glyph-name="mbri-drag-n-drop2" d="M163.971 357.265l-112.606 112.764 113.549 113.715c16.226 15.791-14.507 46.571-30.281 30.323l-128.691-128.875c-7.923-7.94-7.923-22.383 0-30.323l127.753-127.927c20.8-20.89 50.368 10.146 30.276 30.323zM817.362 357.265l112.606 112.764-113.549 113.715c-16.226 15.791 14.507 46.571 30.281 30.323l128.691-128.875c7.923-7.94 7.923-22.383 0-30.323l-127.753-127.927c-20.8-20.89-50.368 10.146-30.276 30.323zM378.595 142.639l112.767-112.606 113.713 113.549c15.794 16.226 46.571-14.507 30.323-30.281l-128.874-128.691c-7.939-7.923-22.384-7.923-30.323 0l-127.929 127.753c-20.889 20.8 10.149 50.368 30.323 30.276zM490.667 832c-11.819 0-21.333-9.515-21.333-21.333v-320h-320c-11.819 0-21.333-9.515-21.333-21.333s9.515-21.333 21.333-21.333h320v-320c0-11.819 9.515-21.333 21.333-21.333s21.333 9.515 21.333 21.333v320h320c11.819 0 21.333 9.515 21.333 21.333s-9.515 21.333-21.333 21.333h-320v320c0 11.819-9.515 21.333-21.333 21.333zM378.748 796.301l111.89 112.196 112.828-113.135c15.671-16.166 46.208 14.455 30.088 30.17l-127.872 128.222c-7.877 7.898-22.21 7.898-30.088 0l-126.933-127.283c-20.727-20.727 10.070-50.189 30.087-30.17z" />
<glyph unicode="&#xe928;" glyph-name="mbri-drag-n-drop" d="M725.334 384c-0.090-5.515-2.321-11.112-6.227-15.012l-42.513-42.462c-18.993-19.755-49.601 11.278-30.058 30.022l27.484 27.451-27.484 27.451c-19.787 18.975 11.178 49.662 30.058 30.022l42.513-42.462c4.069-4.062 6.316-9.265 6.227-15.010zM341.333 384c0.088-5.515 2.321-11.112 6.228-15.012l42.513-42.462c18.975-19.736 49.905 10.987 30.058 30.022l-27.484 27.451 27.484 27.451c19.94 19.122-10.703 49.377-30.058 30.022l-42.513-42.462c-4.069-4.062-6.316-9.265-6.228-15.010zM533.333 191.999c-5.515 0.090-11.112 2.321-15.011 6.227l-42.462 42.513c-19.637 18.88 10.291 49.789 30.022 30.058l27.451-27.484 27.451 27.484c18.401 19.188 50.030-10.825 30.022-30.058l-42.462-42.513c-4.062-4.069-9.266-6.316-15.011-6.227zM533.333 576c-5.515-0.088-11.112-2.321-15.011-6.228l-42.462-42.513c-19.76-18.997 10.174-49.906 30.022-30.058l27.451 27.484 27.451-27.484c18.857-19.664 49.544 11.292 30.022 30.058l-42.462 42.513c-4.062 4.069-9.266 6.316-15.011 6.228zM533.333 490.667c-11.819 0-21.333-9.515-21.333-21.333v-64h-64c-11.819 0-21.333-9.515-21.333-21.333s9.515-21.333 21.333-21.333h64v-64c0-11.819 9.515-21.333 21.333-21.333s21.333 9.515 21.333 21.333v64h64c11.819 0 21.333 9.515 21.333 21.333s-9.515 21.333-21.333 21.333h-64v64c0 11.819-9.515 21.333-21.333 21.333zM64 832c-35.087 0-64-28.913-64-64v-640c0-35.087 28.913-64 64-64h896c35.087 0 64 28.913 64 64v640c0 35.087-28.913 64-64 64zM64 789.333h896c12.188 0 21.333-9.146 21.333-21.333v-640c0-12.188-9.146-21.333-21.333-21.333h-896c-12.188 0-21.333 9.146-21.333 21.333v640c0 12.188 9.146 21.333 21.333 21.333zM106.667 746.667c-11.782 0-21.333-9.551-21.333-21.333s9.551-21.333 21.333-21.333c11.782 0 21.333 9.551 21.333 21.333s-9.551 21.333-21.333 21.333zM192 746.667c-11.782 0-21.333-9.551-21.333-21.333s9.551-21.333 21.333-21.333c11.782 0 21.333 9.551 21.333 21.333s-9.551 21.333-21.333 21.333zM277.333 746.667c-11.782 0-21.333-9.551-21.333-21.333s9.551-21.333 21.333-21.333c11.782 0 21.333 9.551 21.333 21.333s-9.551 21.333-21.333 21.333zM106.667 661.333c-11.819 0-21.333-9.515-21.333-21.333s9.515-21.333 21.333-21.333h810.667c11.819 0 21.333 9.515 21.333 21.333s-9.515 21.333-21.333 21.333z" />
<glyph unicode="&#xe929;" glyph-name="mbri-edit" d="M874.333 789.333c-5.542-0.088-10.832-2.33-14.75-6.25l-85.333-85.333c-8.328-8.331-8.328-21.835 0-30.167l128-128c8.331-8.328 21.835-8.328 30.167 0l85.333 85.333c8.328 8.331 8.328 21.835 0 30.167l-128 128c-4.082 4.083-9.644 6.338-15.417 6.25zM874.667 737.833l97.833-97.833-55.167-55.167-97.833 97.833zM746.333 661.333c-5.542-0.088-10.832-2.33-14.75-6.25l-341.333-341.333c-4.001-4-6.249-9.426-6.25-15.083v-128c0.001-11.782 9.552-21.332 21.333-21.333h128c5.658 0.001 11.083 2.249 15.083 6.25l341.333 341.333c8.328 8.331 8.328 21.835 0 30.167l-128 128c-4.082 4.083-9.644 6.338-15.417 6.25zM746.667 609.833l97.833-97.833-320-320h-97.833v97.833zM149.333 533.333h341.333c11.819 0 21.333-9.515 21.333-21.333s-9.515-21.333-21.333-21.333h-341.333c-11.819 0-21.333 9.515-21.333 21.333s9.515 21.333 21.333 21.333zM149.333 661.333h426.667c11.819 0 21.333-9.515 21.333-21.333s-9.515-21.333-21.333-21.333h-426.667c-11.819 0-21.333 9.515-21.333 21.333s9.515 21.333 21.333 21.333zM149.333 789.333h426.667c11.819 0 21.333-9.515 21.333-21.333s-9.515-21.333-21.333-21.333h-426.667c-11.819 0-21.333 9.515-21.333 21.333s9.515 21.333 21.333 21.333zM64 960c-35.087 0-64-28.913-64-64v-896c0-35.087 28.913-64 64-64h597.333c35.087 0 64 28.913 64 64v213.333c0 28.131-42.667 27.657-42.667 0v-213.333c0-12.188-9.146-21.333-21.333-21.333h-597.333c-12.188 0-21.333 9.146-21.333 21.333v896c0 12.188 9.146 21.333 21.333 21.333h597.333c12.188 0 21.333-9.146 21.333-21.333v-170.667c0-28.683 42.667-28.006 42.667 0v170.667c0 35.087-28.913 64-64 64z" />
<glyph unicode="&#xe92a;" glyph-name="mbri-edit2" d="M832 960c-5.542-0.088-11.165-2.33-15.083-6.25l-85.333-85.333c-8.328-8.331-8.328-21.835 0-30.167l170.667-170.667c8.331-8.328 21.835-8.328 30.167 0l85.333 85.333c8.328 8.331 8.328 21.835 0 30.167l-170.667 170.667c-4.082 4.083-9.311 6.338-15.083 6.25zM832 908.5l140.5-140.5-55.167-55.167-140.5 140.5zM661.333 789.333c-5.542-0.088-11.165-2.33-15.083-6.25l-640-640c-4.001-4-6.249-9.426-6.25-15.083v-170.667c0.001-11.782 9.552-21.332 21.333-21.333h170.667c5.658 0.001 11.083 2.249 15.083 6.25l640 640c8.328 8.331 8.328 21.835 0 30.167l-170.667 170.667c-4.082 4.083-9.311 6.338-15.083 6.25zM661.333 737.833l140.5-140.5-618.667-618.667h-140.5v140.5z" />
<glyph unicode="&#xe92b;" glyph-name="mbri-error" d="M603.388 484.194l-70.085-70.076-70.085 70.076c-18.753 19.288-49.479-11.266-30.103-30.1l70.085-70.076-70.085-70.077c-19.542-18.996 10.417-49.787 30.103-30.1l70.085 70.076 70.143-70.135c19.521-19.521 49.819 10.938 30.103 30.1l-70.143 70.135 70.085 70.076c8.606 8.34 8.633 22.138 0.128 30.444s-22.027 8.121-30.232-0.346zM64 832c-35.087 0-64-28.913-64-64v-640c0-35.087 28.913-64 64-64h896c35.087 0 64 28.913 64 64v640c0 35.087-28.913 64-64 64zM64 789.333h896c12.188 0 21.333-9.146 21.333-21.333v-640c0-12.188-9.146-21.333-21.333-21.333h-896c-12.188 0-21.333 9.146-21.333 21.333v640c0 12.188 9.146 21.333 21.333 21.333zM106.667 746.667c-11.782 0-21.333-9.551-21.333-21.333s9.551-21.333 21.333-21.333c11.782 0 21.333 9.551 21.333 21.333s-9.551 21.333-21.333 21.333zM192 746.667c-11.782 0-21.333-9.551-21.333-21.333s9.551-21.333 21.333-21.333c11.782 0 21.333 9.551 21.333 21.333s-9.551 21.333-21.333 21.333zM277.333 746.667c-11.782 0-21.333-9.551-21.333-21.333s9.551-21.333 21.333-21.333c11.782 0 21.333 9.551 21.333 21.333s-9.551 21.333-21.333 21.333zM106.667 661.333c-11.819 0-21.333-9.515-21.333-21.333s9.515-21.333 21.333-21.333h810.667c11.819 0 21.333 9.515 21.333 21.333s-9.515 21.333-21.333 21.333z" />
<glyph unicode="&#xe92c;" glyph-name="mbri-extension" d="M792.195 941.262c-24.96 24.96-66.080 25.019-91.040 0.059l-213.134-213.134c-24.96-24.96-24.902-66.080 0.060-91.040l213.075-213.075c24.96-24.96 66.080-25.019 91.040-0.060l213.133 213.135c24.96 24.96 24.902 66.080-0.060 91.040l-213.074 213.075zM762.025 911.092l213.075-213.075c8.768-8.768 8.827-21.932 0.060-30.7l-213.134-213.134c-8.768-8.768-21.932-8.709-30.7 0.060l-213.076 213.074c-8.768 8.768-8.827 21.932-0.059 30.7l213.134 213.134c8.768 8.768 21.932 8.709 30.7-0.059zM64 874.667c-35.087 0-64-28.913-64-64v-298.667c0-35.087 28.913-64 64-64h298.667c35.087 0 64 28.913 64 64v298.667c0 35.087-28.913 64-64 64h-298.667zM64 832h298.667c12.188 0 21.333-9.146 21.333-21.333v-298.667c0-12.188-9.146-21.333-21.333-21.333h-298.667c-12.188 0-21.333 9.146-21.333 21.333v298.667c0 12.188 9.146 21.333 21.333 21.333zM576 362.667c-35.087 0-64-28.913-64-64v-298.667c0-35.087 28.913-64 64-64h298.667c35.087 0 64 28.913 64 64v298.667c0 35.087-28.913 64-64 64h-298.667zM576 320h298.667c12.188 0 21.333-9.146 21.333-21.333v-298.667c0-12.188-9.146-21.333-21.333-21.333h-298.667c-12.188 0-21.333 9.146-21.333 21.333v298.667c0 12.188 9.146 21.333 21.333 21.333zM64 362.667c-35.087 0-64-28.913-64-64v-298.667c0-35.087 28.913-64 64-64h298.667c35.087 0 64 28.913 64 64v298.667c0 35.087-28.913 64-64 64h-298.667zM64 320h298.667c12.188 0 21.333-9.146 21.333-21.333v-298.667c0-12.188-9.146-21.333-21.333-21.333h-298.667c-12.188 0-21.333 9.146-21.333 21.333v298.667c0 12.188 9.146 21.333 21.333 21.333z" />
<glyph unicode="&#xe92d;" glyph-name="mbri-features" d="M768.667 960c-8.514 0.276-16.377-4.54-20-12.25l-67.667-144.25-150.917-14.864c-17.156-2.65-24.135-23.587-12-36l109.833-120.636-29.898-159.25c-2.867-17.596 15.831-30.739 31.417-22.083l138.565 79.45 138.734-79.45c15.586-8.656 34.284 4.487 31.417 22.083l-30.068 159.25 109.833 120.297c12.135 12.413 5.156 33.35-12 36l-150.917 15.203-67.667 144.25c-3.419 7.273-10.634 12.008-18.667 12.25zM768 888.417l53.167-113.333c3.028-6.429 9.058-10.928 16.083-12l121.167-10.703-88.333-98.297c-4.746-4.838-6.911-11.643-5.833-18.333l24.651-126.5-110.568 63.95c-6.429 3.559-14.238 3.559-20.667 0l-110.398-63.95 24.482 126.5c1.078 6.691-1.088 13.495-5.833 18.333l-88.333 98.636 121.167 10.364c7.025 1.072 13.055 5.571 16.083 12zM64.417 874.667c-35.299 0-64.417-29.117-64.417-64.417v-297.833c0-35.299 29.117-64.417 64.417-64.417h297.833c35.3 0 64.417 29.117 64.417 64.417v297.833c0 35.299-29.117 64.417-64.417 64.417zM64.417 832h297.833c12.4 0 21.75-9.35 21.75-21.75v-297.833c0-12.4-9.35-21.75-21.75-21.75h-297.833c-12.4 0-21.75 9.35-21.75 21.75v297.833c0 12.4 9.35 21.75 21.75 21.75zM576.417 362.667c-35.299 0-64.417-29.117-64.417-64.417v-297.833c0-35.299 29.117-64.417 64.417-64.417h297.833c35.299 0 64.417 29.117 64.417 64.417v297.833c0 35.299-29.117 64.417-64.417 64.417zM576.417 320h297.833c12.4 0 21.75-9.35 21.75-21.75v-297.833c0-12.4-9.35-21.75-21.75-21.75h-297.833c-12.4 0-21.75 9.35-21.75 21.75v297.833c0 12.4 9.35 21.75 21.75 21.75zM64.417 362.667c-35.3 0-64.417-29.117-64.417-64.417v-297.833c0-35.299 29.117-64.417 64.417-64.417h297.833c35.3 0 64.417 29.117 64.417 64.417v297.833c0 35.299-29.117 64.417-64.417 64.417zM64.417 320h297.833c12.4 0 21.75-9.35 21.75-21.75v-297.833c0-12.4-9.35-21.75-21.75-21.75h-297.833c-12.4 0-21.75 9.35-21.75 21.75v297.833c0 12.4 9.35 21.75 21.75 21.75z" />
<glyph unicode="&#xe92e;" glyph-name="mbri-file" d="M661 874.667c-11.782-0.184-21.184-9.551-21-21.333v-84.917c0-35.3 29.117-64.417 64.417-64.417h84.917c28.61 0 27.651 42.667 0 42.667h-84.917c-12.4 0-21.75 9.35-21.75 21.75v84.917c0.188 12.043-9.623 21.522-21.667 21.333zM192.417 960c-35.299 0-64.417-29.117-64.417-64.417v-895.167c0-35.299 29.117-64.417 64.417-64.417h639.167c35.299 0 64.417 29.117 64.417 64.417v724.917c-0.001 5.658-2.249 11.083-6.25 15.083l-213.333 213.333c-4 4.001-9.426 6.249-15.083 6.25zM192.417 917.333h460.083l200.833-200.833v-716.083c0-12.4-9.35-21.75-21.75-21.75h-639.167c-12.4 0-21.75 9.35-21.75 21.75v895.167c0 12.4 9.35 21.75 21.75 21.75zM277.333 576h469.333c11.819 0 21.333-9.515 21.333-21.333s-9.515-21.333-21.333-21.333h-469.333c-11.819 0-21.333 9.515-21.333 21.333s9.515 21.333 21.333 21.333zM277.333 448h469.333c11.819 0 21.333-9.515 21.333-21.333s-9.515-21.333-21.333-21.333h-469.333c-11.819 0-21.333 9.515-21.333 21.333s9.515 21.333 21.333 21.333zM277.333 320h469.333c11.819 0 21.333-9.515 21.333-21.333s-9.515-21.333-21.333-21.333h-469.333c-11.819 0-21.333 9.515-21.333 21.333s9.515 21.333 21.333 21.333z" />
<glyph unicode="&#xe92f;" glyph-name="mbri-flag" d="M234.667 917.333c-28.193 0-27.85-42.667 0-42.667h689.333l-110.75-203.083c-3.498-6.386-3.498-14.114 0-20.5l110.75-203.083h-689.333c-28.153 0-27.682-42.667 0-42.667h725.333c16.227-0.028 26.544 17.351 18.75 31.583l-122.417 224.417 122.417 224.417c7.794 14.233-2.523 31.611-18.75 31.583zM106.667 960c-35.087 0-64-28.913-64-64v-896c0-35.087 28.913-64 64-64s64 28.913 64 64v896c0 35.087-28.913 64-64 64zM106.667 917.333c12.188 0 21.333-9.146 21.333-21.333v-896c0-12.188-9.146-21.333-21.333-21.333s-21.333 9.146-21.333 21.333v896c0 12.188 9.146 21.333 21.333 21.333z" />
<glyph unicode="&#xe930;" glyph-name="mbri-folder" d="M64 874.667c-35.087 0-64-28.913-64-64v-725.333c0-35.087 28.913-64 64-64h896c35.087 0 64 28.913 64 64v597.333c-0.001 11.782-9.552 21.332-21.333 21.333h-503.167l-164.417 164.417c-3.86 3.861-9.193 6.249-15.083 6.25h-256zM64 832h247.167l164.417-164.417c3.86-3.861 9.193-6.249 15.083-6.25h490.667v-576c0-12.188-9.146-21.333-21.333-21.333h-896c-12.188 0-21.333 9.146-21.333 21.333v725.333c0 12.188 9.146 21.333 21.333 21.333z" />
<glyph unicode="&#xe931;" glyph-name="mbri-gift" d="M322.994 959.667c-16.259 0-32.105-6.024-46.333-13.833-18.939-10.395-34.536-25.839-45.417-44.167-10.865-18.301-17.75-38.949-17.75-59.917 0-20.963 3.028-41.721 11.083-60.75 5.233-12.361 12.403-24.023 21.25-34.333h-181.827c-35.087 0-64-28.913-64-64v-128c0-35.087 28.913-64 64-64h896c35.087 0 64 28.913 64 64v128c0 35.087-28.913 64-64 64h-204.423c1.693 2.718 3.54 5.287 4.917 8.25 6.513 14.013 8.807 29.561 6.833 44.667-1.97 15.079-8.116 29.186-17.333 41-9.202 11.796-21.223 20.904-34.75 26.75-13.508 5.837-28.092 7.417-42.583 7.417-23.909 0-44.89-11.457-62.083-24.833-17.108-13.309-29.731-29.251-41.167-43.833l-34.667-44.25-57.167 87.333c-15.003 22.922-30.879 47.518-52.917 68.75-22.265 21.45-51.122 41.75-85.333 41.75zM336.161 917.083c20.726 0 41.634-13.263 58.833-29.833 17.426-16.788 31.907-38.485 46.917-61.417l51.833-79.167h-135c-11.61 0-22.313 0.206-31.917 1.667-9.602 1.46-18.749 4.24-26.75 8.417-15.77 8.231-28.841 23.331-36.25 40.833-5.656 13.359-7.75 27.957-7.75 42.167 0 14.658 4.744 28.309 11.833 40.25 7.073 11.914 17.364 21.893 29.25 28.417 11.854 6.506 25.311 8.667 39 8.667zM675.161 832.167c7.945 0 16.078-0.936 23.167-4 7.070-3.055 13.482-7.935 18.083-13.833 4.587-5.88 7.646-13.157 8.583-20.333 0.934-7.15-0.218-14.744-3.167-21.083-4.166-8.964-13.037-16.91-23.333-21-10.402-4.132-23.975-5-39.583-5l-82.911-0.25 26.994 33.083c11.226 14.315 21.875 27.262 33.75 36.5 11.789 9.171 25.431 15.917 38.417 15.917zM64 704h896c12.188 0 21.333-9.146 21.333-21.333v-128c0-12.188-9.146-21.333-21.333-21.333h-896c-12.188 0-21.333 9.146-21.333 21.333v128c0 12.188 9.146 21.333 21.333 21.333zM448 661.333c-11.819 0-21.333-9.515-21.333-21.333v-42.667c0-11.819 9.515-21.333 21.333-21.333s21.333 9.515 21.333 21.333v42.667c0 11.819-9.515 21.333-21.333 21.333zM576 661.333c-11.819 0-21.333-9.515-21.333-21.333v-42.667c0-11.819 9.515-21.333 21.333-21.333s21.333 9.515 21.333 21.333v42.667c0 11.819-9.515 21.333-21.333 21.333zM106.667 447.997c-11.782-0.183-21.518-9.556-21.333-21.331v-426.667c0-35.064 28.913-64 64-64h725.33c35.087 0 64 28.936 64 64v426.667c0.205 14.415-10.564 21.333-21.333 21.333s-21.538-6.918-21.334-21.333v-426.667c0-12.18-9.146-21.333-21.333-21.333h-277.333v448c0 11.811-9.515 21.333-21.333 21.333s-21.333-9.522-21.333-21.333v-448h-85.333v448c0 11.811-9.515 21.333-21.333 21.333s-21.333-9.522-21.333-21.333v-448l-277.33-0.028c-12.188-0.001-21.333 9.182-21.333 21.362v426.667c0.189 12.035-9.29 21.519-21.333 21.331z" />
<glyph unicode="&#xe932;" glyph-name="mbri-github" d="M512 960c-282.517 0-512-229.483-512-512 0-244.156 172.417-446.308 401.333-497.333 1.208-0.243 2.598-0.382 4.019-0.382 11.448 0 20.79 9.016 21.312 20.335l0.002 194.714c0 15.684 7.744 29.854 20 37.333 5.897 3.861 9.739 10.436 9.739 17.909 0 10.034-6.927 18.45-16.259 20.728-132.773 23.894-226.813 109.869-226.813 206.697 0 37.402 14.132 74.114 38.667 105.333 2.418 3.334 3.903 7.485 4 11.977v128.023l110.667-50.667c2.806-1.452 6.124-2.303 9.642-2.303 2.27 0 4.457 0.355 6.509 1.011 38.693 13.42 82.374 19.958 129.182 19.958s90.489-6.539 129.333-20c1.901-0.615 4.088-0.969 6.358-0.969 3.517 0 6.836 0.851 9.761 2.359l110.547 50.611v-128c0.097-4.515 1.582-8.666 4.043-12.062 24.491-31.157 38.624-67.87 38.624-105.271 0-96.828-94.040-182.803-226.667-206.667-9.479-2.308-16.405-10.724-16.405-20.758 0-7.473 3.842-14.048 9.658-17.859 12.338-7.529 20.081-21.699 20.081-37.383v-194.667c0.524-11.366 9.866-20.382 21.314-20.382 1.422 0 2.811 0.139 4.155 0.404 228.781 51.003 401.198 253.155 401.198 497.311 0 282.517-229.483 512-512 512zM512 917.333c259.458 0 469.333-209.873 469.333-469.333 0-214.366-145.169-389.171-341.333-445.333v162.667c0 16.7-4.983 32.119-13.333 45.333 129.029 35.081 226.667 124.058 226.667 237.333 0 45.175-15.962 87.661-42.667 124v153.333c0.010 0.245 0.016 0.532 0.016 0.821 0 11.783-9.552 21.335-21.335 21.335-3.402 0-6.618-0.796-9.471-2.212l-134.542-61.278c-41.608 13.274-85.783 20-133.333 20s-91.726-6.726-133.333-20l-134.667 61.333c-2.729 1.36-5.945 2.156-9.347 2.156-11.783 0-21.335-9.552-21.335-21.335 0-0.289 0.006-0.576 0.017-0.862l-0.001-153.292c-26.705-36.339-42.667-78.825-42.667-124 0-113.276 97.638-202.253 226.667-237.333-8.35-13.214-13.333-28.634-13.333-45.333v-21.333c-28.561-10.274-53.18-17.497-70.667-17.333-20.058 0-31.757 5.502-45.333 28-16.796 27.831-31.841 49.766-48 66.667s-34.415 28.836-56 33.333c-1.203 0.241-2.585 0.378-4 0.378s-2.797-0.138-4.135-0.4c-11.518-0.148-20.899-9.634-20.899-21.311s9.381-21.163 21.018-21.333c12.372-2.56 21.224-7.32 33.349-20s26.465-33.154 42.667-60c19.422-32.188 50.008-47.714 81.333-48 22.693-0.309 46.246 6.408 70.667 14.667v-96c-196.164 56.162-341.333 230.967-341.333 445.333 0 259.46 209.875 469.333 469.333 469.333z" />
<glyph unicode="&#xe933;" glyph-name="mbri-globe" d="M661.333 874.667c-19.175-0.004-27.997-23.503-15.083-36.417 0 0 9.214-9.237 18.667-23.417s17.75-32.611 17.75-46.833c0-3.556-3.619-16.316-11-30.75s-17.747-31.179-28.333-47.833c-10.586-16.655-21.406-33.187-29.917-48.167s-16.083-26.318-16.083-43.917c0-17.778 10.645-36.654 29-47.667s43.296-16.333 77.667-16.333c29.63 0 47.355-5.346 55.667-10.333s8.333-7.444 8.333-11c0-6.667 3.178-13.734 7-17.917s7.757-6.295 11.25-7.833c6.985-3.077 13.271-4.125 20.167-5.083 13.792-1.915 29.767-2.313 45.167-3.75 19.379-1.808 43.699-6.706 43.667-11.583-0.073-10.698-9.89-24.176-29.75-37.417-20.359-13.573-48.907-23.083-76.167-23.083-34.37 0-59.312-5.32-77.667-16.333s-29-29.889-29-47.667c0-17.557-8.207-21.333-21.333-21.333-17.778 0-33.064-8.231-44.417-19.583s-19.583-26.639-19.583-44.417c0-17.778 6.542-45.155 26.917-80.083s55.035-75.087 111.417-108.917c23.415-14.049 45.415 22.618 22 36.667-50.284 30.171-79.625 64.678-96.583 93.75s-21.083 55.028-21.083 58.583c-1.132 12.728 9.156 21.333 21.333 21.333 17.778 0 33.064 8.231 44.417 19.583s19.583 26.639 19.583 44.417c0 3.555 0.022 6.013 8.333 11s26.037 10.333 55.667 10.333c36.741 0 72.192 11.823 99.833 30.25s49.5 44.417 49.5 76.417c0 10.667-4.907 21.327-11.667 28.167s-14.554 10.744-22.417 13.583c-15.725 5.679-32.914 7.451-49.5 8.833s-36.993 1.494-41.875 8.498c-7.755 11.126-13.187 20.239-31.542 31.252s-43.296 16.333-77.667 16.333c-29.63 0-47.355 5.346-55.667 10.333-11.305 6.527-4.983 21.305 2.25 33.833 7.489 13.182 18.003 29.426 28.75 46.333s21.715 34.481 30.333 51.333c8.619 16.852 15.667 32.389 15.667 50.167 0 28.444-13.036 52.679-24.917 70.5s-24 29.917-24 29.917c-4.019 4.154-9.303 6.25-15.083 6.25zM106.667 576c-14.425 0.204-21.333-10.565-21.333-21.333s6.909-21.537 21.333-21.333h36.25c16.133 0 21.75-42.667 49.083-42.667h42.667c13.834-0.235 21.333-9.659 21.333-21.333v-64c0-18.33 2.675-37.426 12.083-54.333s28.816-31 51.917-31h42.667c13.489-0.226 21.333-9.987 21.333-21.333v-213.333c0-28.444 17.412-48.539 33.167-56.417s30.833-7.583 30.833-7.583c14.425-0.205 21.333 10.565 21.333 21.333s-6.909 21.537-21.333 21.333c0 0-6.255 0.294-11.833 3.084s-9.5 4.028-9.5 18.25v213.333c0 18.030-8.746 32.746-20 44s-25.97 20-44 20h-42.667c-17.51 0-21.333 21.333-21.333 42.667v64c0 18.030-8.746 32.746-20 44s-25.97 20-44 20h-21.333c-21.333 0-24.242 13.64-35.333 28.417-5.232 6.97-16.096 14.25-28.667 14.25zM512 960c-282.517 0-512-229.483-512-512s229.483-512 512-512c282.517 0 512 229.483 512 512s-229.483 512-512 512zM512 917.333c259.458 0 469.333-209.875 469.333-469.333s-209.875-469.333-469.333-469.333c-259.458 0-469.333 209.875-469.333 469.333s209.875 469.333 469.333 469.333z" />
<glyph unicode="&#xe934;" glyph-name="mbri-globe-2" d="M277.333 490.667h426.667c11.819 0 21.333-9.515 21.333-21.333s-9.515-21.333-21.333-21.333h-426.667c-11.819 0-21.333 9.515-21.333 21.333s9.515 21.333 21.333 21.333zM896 469.333c0-11.782-9.551-21.333-21.333-21.333s-21.333 9.551-21.333 21.333c0 11.782 9.551 21.333 21.333 21.333s21.333-9.551 21.333-21.333zM128 469.333c0-11.782-9.551-21.333-21.333-21.333s-21.333 9.551-21.333 21.333c0 11.782 9.551 21.333 21.333 21.333s21.333-9.551 21.333-21.333zM490.667 960c-270.735 0-490.667-219.932-490.667-490.667s219.932-490.667 490.667-490.667c270.735 0 490.667 219.932 490.667 490.667s-219.932 490.667-490.667 490.667zM490.667 917.333c73.21 0 141.39-46.547 192.75-126.917-121.576-58.033-263.412-58-385.333 0.167 51.345 80.246 119.434 126.75 192.583 126.75zM318.667 883.083c-23.721-23.13-42.119-49.564-58.25-72.25-11 6.608-21.795 13.697-32.333 21.333 27.971 20.257 58.254 37.484 90.583 50.917zM662.667 883.083c32.33-13.433 62.612-30.66 90.583-50.917-10.544-7.646-21.316-14.798-32.333-21.417-16.59 27.56-39.801 51.709-58.25 72.333zM787.5 804.5c92.61-82.006 151.167-201.541 151.167-335.167s-58.557-253.161-151.167-335.167c-14.736 11.218-29.876 21.582-45.5 30.917 43.212 84.004 68.667 189.514 68.667 304.25 0 114.766-25.434 220.319-68.667 304.333 15.613 9.326 30.776 19.628 45.5 30.833zM193.667 804.417c14.779-11.247 30.095-21.318 45.75-30.667-43.263-84.030-68.75-189.606-68.75-304.417 0-114.766 25.434-220.319 68.667-304.333-15.637-9.34-30.907-19.435-45.667-30.667-92.508 82.002-151 201.459-151 335 0 133.561 58.469 253.081 151 335.083zM276.917 753.417c134.994-65.374 292.873-65.278 427.5-0.083 39.356-76.993 63.583-175.892 63.583-284 0-108.062-24.173-206.937-63.5-283.917-65.475 31.721-136.42 49.25-207.667 49.25-75.237 0-150.561-15.745-219.917-49.333-39.356 76.993-63.583 175.892-63.583 284 0 108.139 24.207 207.081 63.583 284.083zM496.25 192c64.139-0.799 128.037-15.442 187.167-43.667-51.364-80.406-119.522-127-192.75-127-73.179 0-141.314 46.525-192.667 126.833 62.642 29.899 130.49 44.677 198.25 43.833zM260.417 127.917c16.59-27.56 39.801-51.709 58.25-72.333-32.35 13.442-62.681 30.643-90.667 50.917 10.568 7.662 21.383 14.789 32.417 21.417zM721 127.917c11.002-6.613 21.803-13.695 32.333-21.333-27.997-20.287-58.301-37.552-90.667-51 23.752 23.175 42.152 49.606 58.333 72.333z" />
<glyph unicode="&#xe935;" glyph-name="mbri-growing-chart" d="M874.667 618.667c-14.425 0.204-21.333-10.565-21.333-21.333s6.909-21.537 21.333-21.333h106.667v-106.667c-0.205-14.425 10.565-21.333 21.333-21.333s21.537 6.909 21.333 21.333v128c-0.001 11.782-9.552 21.332-21.333 21.333zM618.667 243.953l-155.116 155.395c-8.326 8.318-21.821 8.318-30.146 0l-341.103-340.919c-20.333-19.513 10.053-51.045 30.146-30.13l325.552 325.854 155.956-155.395c8.326-8.318 21.821-8.318 30.146 0l298.465 298.304c8.736 8.731 7.62 22.494-0.367 30.476-7.985 7.981-22.185 6.795-27.982 0.286zM21.333 960c-11.782-0.184-21.518-9.551-21.333-21.333v-981.333c0.001-11.782 9.552-21.332 21.333-21.333h981.333c14.425-0.205 21.333 10.564 21.333 21.333s-6.909 21.537-21.333 21.333h-960v960c0.188 12.043-9.29 21.522-21.333 21.333z" />
<glyph unicode="&#xe936;" glyph-name="mbri-hearth" d="M277.333 874.667c-72.933 0-142.351-34.075-192.583-84.667-50.322-50.682-84.75-121.568-84.75-192.667 0-82.61 26.254-163.772 73.25-231.417 46.497-66.927 107.459-120.628 169.583-169.333 81.666-64.027 168.488-121.762 258.75-172.5 3.236-1.81 6.826-2.75 10.417-2.75s7.18 0.94 10.417 2.75c90.287 50.752 176.695 108.495 258.333 172.5 62.124 48.705 123.086 102.407 169.583 169.333 46.961 67.594 73.667 148.731 73.667 231.417 0 71.191-34.889 142.030-85.167 192.667-50.423 50.784-121.24 84.667-192.583 84.667-49.595 0-100.329-9.748-145.25-34.25-36.903-20.129-64.583-52.502-89-86.5-24.549 34.055-52.542 66.387-89.417 86.5-44.796 24.434-94.731 34.25-145.25 34.25zM277.333 832c44.999 0 87.415-8.719 124.75-29.083 37.658-20.541 69.971-51.535 91.5-88.333 8.238-14.085 28.595-14.085 36.833 0 21.584 36.893 53.479 67.822 91.083 88.333 37.209 20.296 80.791 29.083 124.75 29.083 57.497 0 119.393-28.837 162.25-72 43.003-43.31 72.833-105.858 72.833-162.667 0-73.476-23.86-146.429-66-207.083-42.603-61.322-100.146-112.522-160.917-160.167-76.653-60.097-157.98-113.746-242.417-161.917-84.494 48.185-166.203 101.838-242.833 161.917-60.771 47.645-118.314 98.845-160.917 160.167-42.104 60.603-65.583 133.532-65.583 207.083 0 56.901 29.459 119.402 72.417 162.667 43.047 43.355 102.793 72 162.25 72z" />
<glyph unicode="&#xe937;" glyph-name="mbri-help" d="M21.333 746.667h85.333c11.819 0 21.333-9.515 21.333-21.333s-9.515-21.333-21.333-21.333h-85.333c-11.819 0-21.333 9.515-21.333 21.333s9.515 21.333 21.333 21.333zM21.333 576h85.333c11.819 0 21.333-9.515 21.333-21.333s-9.515-21.333-21.333-21.333h-85.333c-11.819 0-21.333 9.515-21.333 21.333s9.515 21.333 21.333 21.333zM21.333 405.333h85.333c11.819 0 21.333-9.515 21.333-21.333s-9.515-21.333-21.333-21.333h-85.333c-11.819 0-21.333 9.515-21.333 21.333s9.515 21.333 21.333 21.333zM234.667 874.667c-35.087 0-64-28.913-64-64v-554.667c0-35.087 28.913-64 64-64h106.667v-149.333c0.007-19 22.977-28.514 36.417-15.083l164.417 164.417h417.833c35.087 0 64 28.913 64 64v554.667c0 35.087-28.913 64-64 64zM234.667 832h725.333c12.188 0 21.333-9.146 21.333-21.333v-554.667c0-12.188-9.146-21.333-21.333-21.333h-426.667c-5.658-0.001-11.083-2.249-15.083-6.25l-134.25-134.25v119.167c-0.001 11.782-9.552 21.332-21.333 21.333h-128c-12.188 0-21.333 9.146-21.333 21.333v554.667c0 12.188 9.146 21.333 21.333 21.333z" />
<glyph unicode="&#xe938;" glyph-name="mbri-home" d="M106.667 576c-11.788-0.184-21.518-9.551-21.333-21.333v-469.333c0-35.087 28.896-64 64-64h213.333c11.787 0.001 21.332 9.552 21.333 21.333v234.667c0 71.281 56.666 128 127.982 128s128.018-56.719 128.018-128v-234.667c0.001-11.782 9.546-21.332 21.333-21.333h213.333c35.104 0 63.986 28.913 64 64l0.192 469.333c0.205 14.425-10.751 21.333-21.525 21.333s-21.366-6.909-21.162-21.333l-0.171-469.333c-0.004-12.188-9.14-21.333-21.333-21.333h-192v213.333c0 94.18-76.458 170.667-170.685 170.667s-170.604-76.486-170.649-170.667v-213.333h-192c-12.194 0-21.333 9.146-21.333 21.333v469.333c0.189 12.043-9.284 21.522-21.333 21.333zM511.982 874.667c-19.6 0-37.329-6.497-51.109-12.417s-23.845-12-23.845-12l-425.96-234.083c-23.881-13.788-2.462-50.098 20.593-37.417l426.627 234.5c0.252 0.161 0.503 0.328 0.75 0.5 0 0 7.625 4.586 18.676 9.333s25.297 8.917 34.267 8.917c8.971 0 23.275-4.167 34.35-8.917s18.676-9.417 18.676-9.417c0.247-0.144 0.497-0.283 0.751-0.417l426.543-234.5c24.981-13.805 44.851 24.147 20.593 37.417l-425.876 234.083c0 0-10.132 6.083-23.928 12s-31.508 12.417-51.108 12.417z" />
<glyph unicode="&#xe939;" glyph-name="mbri-hot-cup" d="M234.667 960c-11.819 0-21.333-9.515-21.333-21.333v-85.333c0-11.819 9.515-21.333 21.333-21.333s21.333 9.515 21.333 21.333v85.333c0 11.819-9.515 21.333-21.333 21.333zM405.333 960c-11.819 0-21.333-9.515-21.333-21.333v-85.333c0-11.819 9.515-21.333 21.333-21.333s21.333 9.515 21.333 21.333v85.333c0 11.819-9.515 21.333-21.333 21.333zM576 960c-11.819 0-21.333-9.515-21.333-21.333v-85.333c0-11.819 9.515-21.333 21.333-21.333s21.333 9.515 21.333 21.333v85.333c0 11.819-9.515 21.333-21.333 21.333zM21.333 789.333c-11.782-0.184-21.518-9.551-21.333-21.333v-448c0-150.147 95.265-278.035 225.417-341.333h-204.083c-11.819 0-21.333-9.515-21.333-21.333s9.515-21.333 21.333-21.333h768c11.819 0 21.333 9.515 21.333 21.333s-9.515 21.333-21.333 21.333h-204.083c130.151 63.299 225.417 191.186 225.417 341.333v448c0.204 14.425-10.565 21.333-21.333 21.333s-21.537-6.909-21.333-21.333v-448c0-187.958-173.199-341.333-362.667-341.333s-362.667 153.376-362.667 341.333v448c0.188 12.043-9.29 21.522-21.333 21.333zM106.667 661.333c-11.819 0-21.333-9.515-21.333-21.333s9.515-21.333 21.333-21.333h597.333c11.819 0 21.333 9.515 21.333 21.333s-9.515 21.333-21.333 21.333zM874.667 661.333c-14.425 0.204-21.333-10.565-21.333-21.333s6.909-21.537 21.333-21.333c59.163 0 106.667-47.504 106.667-106.667s-47.504-106.667-106.667-106.667c-14.425 0.205-21.333-10.565-21.333-21.333s6.909-21.537 21.333-21.333c82.222 0 149.333 67.112 149.333 149.333s-67.112 149.333-149.333 149.333z" />
<glyph unicode="&#xe93a;" glyph-name="mbri-idea" d="M490.667 960c-11.819 0-21.333-9.515-21.333-21.333v-85.333c0-11.819 9.515-21.333 21.333-21.333s21.333 9.515 21.333 21.333v85.333c0 11.819-9.515 21.333-21.333 21.333zM192 832c-19.126-0.004-28.577-23.068-14.833-36.417l42.5-42.75c19.397-19.466 49.265 11.684 30.083 30.167l-42.5 42.75c-4.009 4.159-9.484 6.25-15.25 6.25zM789.322 832c-5.766 0-11.241-2.091-15.25-6.25l-42.583-42.75c-19.182-18.483 10.687-49.632 30.083-30.167l42.583 42.75c13.744 13.348 4.293 36.413-14.833 36.417zM490.667 746.667c-66.981 0-126.661-38.192-168.25-96.417s-66.417-136.991-66.417-223.583c0-86.592 24.828-165.359 66.417-223.583s101.269-96.417 168.25-96.417c66.981 0 126.661 38.192 168.25 96.417s66.417 136.991 66.417 223.583c0 86.592-24.828 165.359-66.417 223.583s-101.269 96.417-168.25 96.417zM490.667 704c50.84 0 97.877-28.712 133.5-78.583s58.5-120.393 58.5-198.75c0-78.357-22.877-148.878-58.5-198.75-19.901-27.861-43.468-48.83-69.167-62.167 0.837 54.641 7.286 100.253 17 128 11.978 34.216 29.223 55.53 57 71.583 19.707 10.871 11.056 40-11.167 40-3.549-0.141-7.034-1.261-10.083-3.084-36.037-20.827-61.306-52.682-75.917-94.417-14.184-40.515-19.537-90.446-19.833-152.833-16.111-5.886-28.91-4.726-42.667 0-0.299 62.388-5.65 112.318-19.833 152.833-14.611 41.735-39.879 73.59-75.917 94.417-3.049 1.822-6.535 2.941-10.083 3.083-22.223 0-30.874-29.129-11.167-40 27.777-16.053 45.022-37.367 57-71.583 9.708-27.732 16.157-74.056 17-128-25.699 13.336-49.266 34.306-69.167 62.167-35.623 49.872-58.5 120.393-58.5 198.75s22.877 148.878 58.5 198.75c35.623 49.872 82.66 78.583 133.5 78.583zM64 448c-11.819 0-21.333-9.515-21.333-21.333s9.515-21.333 21.333-21.333h85.333c11.819 0 21.333 9.515 21.333 21.333s-9.515 21.333-21.333 21.333zM831.989 448c-11.819 0-21.333-9.515-21.333-21.333s9.515-21.333 21.333-21.333h85.333c11.819 0 21.333 9.515 21.333 21.333s-9.515 21.333-21.333 21.333zM362.667 64c-11.819 0-21.333-9.515-21.333-21.333s9.515-21.333 21.333-21.333h256c11.819 0 21.333 9.515 21.333 21.333s-9.515 21.333-21.333 21.333zM362.667-21.333c-11.819 0-21.333-9.515-21.333-21.333s9.515-21.333 21.333-21.333h256c11.819 0 21.333 9.515 21.333 21.333s-9.515 21.333-21.333 21.333z" />
<glyph unicode="&#xe93b;" glyph-name="mbri-image-gallery" d="M362.667 746.667c-2.435-0.024-5.804-0.474-8.099-1.331l-313.831-119.704c-33.373-12.713-49.062-51.397-36.33-84.017l170.425-436.722c12.766-32.704 50.893-51.734 83.965-34.272l154.795 80.437c27.472 13.18 6.722 51.256-19.121 37.932l-154.711-80.354c-8.632-4.558-21.215 1.315-25.605 12.561l-12.387 31.694 84.381 42.175c20.554 9.832 13.966 39.83-8.815 39.601-3.332-0.043-6.606-0.87-9.56-2.412l-81.552-39.601-142.492 365.183c-4.423 11.33 0.611 23.71 11.306 27.784l313.997 119.537c23.357 8.904 17.077 41.509-6.366 41.509zM533.333 490.667c-3.354 0.020-6.499-0.751-9.5-2.25l-85.333-42.667c-25.523-11.414-4.086-50.927 20-37.667l65.333 32.667 33.083-66.25c5.254-10.531 18.043-14.819 28.583-9.583l151.667 75.833 32.25-65.083c12.104-27.065 52.466-6.973 38.167 19l-41.833 84.167c-5.254 10.531-18.043 14.819-28.583 9.583l-151.667-75.833-33.083 66.25c-3.576 7.19-10.885 11.762-19.083 11.833zM558.841 827.218c-31.578 13.392-68.329-2.335-81.35-34.813l-174.175-434.434c-13.021-32.478 2.27-70.277 33.848-83.669l383.995-162.854c31.578-13.392 68.329 2.335 81.35 34.813l174.175 434.434c13.021 32.478-2.27 70.277-33.848 83.669zM543.007 787.724l383.995-162.854c10.969-4.652 15.806-16.608 11.283-27.89l-150.424-375.193-422.394 179.139 150.424 375.193c4.523 11.281 16.148 16.256 27.117 11.604zM349.633 361.433l422.394-179.139-7.917-19.747c-4.523-11.281-16.148-16.256-27.117-11.604l-383.995 162.854c-10.969 4.652-15.806 16.608-11.283 27.89zM597.333 704c-46.876 0-85.333-38.458-85.333-85.333s38.458-85.333 85.333-85.333c46.876 0 85.333 38.458 85.333 85.333s-38.458 85.333-85.333 85.333zM597.333 661.333c23.817 0 42.667-18.85 42.667-42.667s-18.85-42.667-42.667-42.667c-23.817 0-42.667 18.85-42.667 42.667s18.85 42.667 42.667 42.667zM192 576c-35.094 0-64-28.906-64-64s28.906-64 64-64c35.094 0 64 28.906 64 64s-28.906 64-64 64zM192 533.333c12.035 0 21.333-9.299 21.333-21.333s-9.299-21.333-21.333-21.333c-12.035 0-21.333 9.299-21.333 21.333s9.299 21.333 21.333 21.333zM277.333 448c-9.344 0.077-17.402-5.683-20.25-14.583l-42.667-128c-3.238-9.713 2.009-28.083 20.25-28.083 4.243 0 15.389 0 20.25 14.583l42.667 128c4.792 13.801-5.641 27.977-20.25 28.083z" />
<glyph unicode="&#xe93c;" glyph-name="mbri-image-slider" d="M661.317 661.331c-5.542-0.088-11.166-2.332-15.084-6.256l-155.566-155.726-70.277 70.314c-8.332 8.335-21.836 8.335-30.168 0l-128.006-128.117c-19.415-18.658 11.143-49.236 30.168-30.194l112.949 113.020 70.225-70.314c8.332-8.336 21.836-8.336 30.168 0l155.59 155.726 70.253-70.314c19.128-19.939 49.667 11.456 30.168 30.194l-85.337 85.412c-4.082 4.087-9.311 6.344-15.084 6.256zM384 789.333c-46.876 0-85.333-38.458-85.333-85.333s38.458-85.333 85.333-85.333c46.876 0 85.333 38.458 85.333 85.333s-38.458 85.333-85.333 85.333zM384 746.667c23.817 0 42.667-18.85 42.667-42.667s-18.85-42.667-42.667-42.667c-23.817 0-42.667 18.85-42.667 42.667s18.85 42.667 42.667 42.667zM277.333 362.667h469.333c11.819 0 21.333-9.515 21.333-21.333s-9.515-21.333-21.333-21.333h-469.333c-11.819 0-21.333 9.515-21.333 21.333s9.515 21.333 21.333 21.333zM853.333 85.333c0-11.782-9.551-21.333-21.333-21.333s-21.333 9.551-21.333 21.333c0 11.782 9.551 21.333 21.333 21.333s21.333-9.551 21.333-21.333zM213.333 85.333c0-11.782-9.551-21.333-21.333-21.333s-21.333 9.551-21.333 21.333c0 11.782 9.551 21.333 21.333 21.333s21.333-9.551 21.333-21.333zM512 149.333c-46.876 0-85.333-38.458-85.333-85.333s38.458-85.333 85.333-85.333c46.876 0 85.333 38.458 85.333 85.333s-38.458 85.333-85.333 85.333zM512 106.667c23.817 0 42.667-18.85 42.667-42.667s-18.85-42.667-42.667-42.667c-23.817 0-42.667 18.85-42.667 42.667s18.85 42.667 42.667 42.667zM106.667 832c14.428 0 21.355-10.667 21.333-21.333s-6.99-21.333-21.333-21.333h-42.667c-12.188 0-21.333-9.146-21.333-21.333v-426.667c0-12.188 9.146-21.333 21.333-21.333h42.667c14.623 0 21.333-10.565 21.333-21.333s-7.401-21.333-21.333-21.333h-42.667c-35.087 0-64 28.913-64 64v426.667c0 35.087 28.913 64 64 64zM917.333 832c-14.428 0-21.355-10.667-21.333-21.333s6.99-21.333 21.333-21.333h42.667c12.188 0 21.333-9.146 21.333-21.333v-426.667c0-12.188-9.146-21.333-21.333-21.333h-42.667c-14.623 0-21.333-10.565-21.333-21.333s7.401-21.333 21.333-21.333h42.667c35.087 0 64 28.913 64 64v426.667c0 35.087-28.913 64-64 64zM234.667 917.333c-35.087 0-64-28.913-64-64v-554.667c0-35.087 28.913-64 64-64h554.667c35.087 0 64 28.913 64 64v554.667c0 35.087-28.913 64-64 64h-554.667zM234.667 874.667h554.667c12.188 0 21.333-9.146 21.333-21.333v-554.667c0-12.188-9.146-21.333-21.333-21.333h-554.667c-12.188 0-21.333 9.146-21.333 21.333v554.667c0 12.188 9.146 21.333 21.333 21.333z" />
<glyph unicode="&#xe93d;" glyph-name="mbri-info" d="M512 576c-46.906 0-85.333-38.428-85.333-85.333v-298.667c0-46.906 38.428-85.333 85.333-85.333s85.333 38.428 85.333 85.333v298.667c0 46.906-38.428 85.333-85.333 85.333zM512 533.333c24.006 0 42.667-18.66 42.667-42.667v-298.667c0-24.006-18.66-42.667-42.667-42.667s-42.667 18.66-42.667 42.667v298.667c0 24.006 18.66 42.667 42.667 42.667zM512 789.333c-46.876 0-85.333-38.458-85.333-85.333s38.458-85.333 85.333-85.333c46.876 0 85.333 38.458 85.333 85.333s-38.458 85.333-85.333 85.333zM512 746.667c23.817 0 42.667-18.85 42.667-42.667s-18.85-42.667-42.667-42.667c-23.817 0-42.667 18.85-42.667 42.667s18.85 42.667 42.667 42.667zM512 960c-282.517 0-512-229.483-512-512s229.483-512 512-512c282.517 0 512 229.483 512 512s-229.483 512-512 512zM512 917.333c259.458 0 469.333-209.875 469.333-469.333s-209.875-469.333-469.333-469.333c-259.458 0-469.333 209.875-469.333 469.333s209.875 469.333 469.333 469.333z" />
<glyph unicode="&#xe93e;" glyph-name="mbri-italic" d="M640.003 959.454c-46.876 0-85.333-38.46-85.333-85.333 0-46.878 38.458-85.333 85.333-85.333s85.333 38.455 85.333 85.333c0 46.874-38.458 85.333-85.333 85.333zM640.003 916.787c23.817 0 42.667-18.85 42.667-42.667s-18.85-42.667-42.667-42.667c-23.817 0-42.667 18.85-42.667 42.667s18.85 42.667 42.667 42.667zM562.667 746.667c-14.629 0-28.479-2.688-41.333-6.669-38.564-11.887-68.939-38.447-90.667-64-28.971-34.074-44-67.998-44-67.998-12.182-25.651 23.037-46.724 37.333-17.335 0 0 13.83 29.457 38.667 58.667 17.104 20.113 38.782 38.383 64 48 10.034 3.84 13.751-7.057 14.667-14.665 1.663-13.815-3.971-41.647-16-76.002-24.059-68.715-72.359-164.548-118.667-259.998s-90.377-190.426-104-266.667c-6.811-38.123-6.998-72.162 9.333-100.002 16.332-27.836 49.949-43.998 92-43.998 58.636 0 105.995 36.557 138.667 70.665 32.672 34.112 52 69.333 52 69.333 12.574 21.781-23.404 44.13-37.333 20.002 0 0-16.576-29.982-45.333-60.002-13.709-14.31-29.119-28.565-46.667-38.665-10.021-5.769-17.702 2.005-18.667 13.333-1.163 13.632 4.687 42.074 17.333 75.998 25.293 67.853 74.521 160.508 120 254.669s87.761 189.385 97.333 265.331c4.786 37.969 1.129 73.079-18.667 100.002s-54.541 40-100 40zM577.333 704c26.879-2.432 41.902-10.748 50.667-22.669 10.341-14.067 14.736-37.043 10.667-69.333-8.14-64.585-48.312-158.788-93.333-251.998s-94.243-185.993-121.333-258.667c-13.545-36.339-22.76-67.29-20-94.669 0.929-9.212 4.414-18.59 9.333-26.667-28.411-4.305-53.609 2.773-64 21.342-7.806 13.939-11.269 38.775-5.333 72 11.871 66.441 54.012 161.203 100 256 45.988 94.793 95.432 190.029 121.333 264 12.951 36.988 21.393 68.151 17.333 96-0.751 5.154-3.321 9.741-5.333 14.669z" />
<glyph unicode="&#xe93f;" glyph-name="mbri-key" d="M192 832c-35.094 0-64-28.906-64-64s28.906-64 64-64c35.094 0 64 28.906 64 64s-28.906 64-64 64zM192 789.333c12.035 0 21.333-9.299 21.333-21.333s-9.299-21.333-21.333-21.333c-12.035 0-21.333 9.299-21.333 21.333s9.299 21.333 21.333 21.333zM277.333 960c-152.914 0-277.333-124.419-277.333-277.333s124.419-277.333 277.333-277.333c33.441 0 68.286 8.842 99.333 19.833l482.917-482.917c3.86-3.861 9.193-6.249 15.083-6.25h128c11.782 0.001 21.332 9.552 21.333 21.333v128c-0.001 5.891-2.389 11.223-6.25 15.083l-85.333 85.333c-3.86 3.861-9.193 6.249-15.083 6.25h-21.334v21.333c-0.001 5.891-2.389 11.223-6.25 15.083l-85.333 85.333c-3.86 3.861-9.193 6.249-15.083 6.25h-64v64c-0.001 5.891-2.389 11.223-6.25 15.083l-85.333 85.333c-3.86 3.861-9.193 6.249-15.083 6.25h-21.334v21.333c-0.001 5.891-2.389 11.223-6.25 15.083l-56.25 56.25c10.991 31.047 19.833 65.892 19.833 99.333 0 152.914-124.419 277.333-277.333 277.333zM277.333 917.333c129.856 0 234.667-104.811 234.667-234.667 0-31.975-8.068-70.91-19.667-98.333-1.065-2.453-1.685-5.309-1.685-8.311 0-5.901 2.396-11.243 6.268-15.105l57.75-57.75v-33.833c0.001-11.782 9.552-21.332 21.333-21.333h33.833l72.833-72.833v-76.5c0.001-11.782 9.552-21.332 21.333-21.333h76.5l72.833-72.833v-33.833c0.001-11.782 9.552-21.332 21.333-21.333h33.833l72.833-72.833v-97.833h-97.833l-484.417 484.417c-3.863 3.873-9.205 6.269-15.106 6.269-3.001 0-5.858-0.62-8.449-1.738-27.285-11.546-66.22-19.614-98.195-19.614-129.856 0-234.667 104.811-234.667 234.667s104.811 234.667 234.667 234.667z" />
<glyph unicode="&#xe940;" glyph-name="mbri-laptop" d="M192 746.667c-11.782-0.001-21.332-9.552-21.333-21.333v-469.333c0-27.833 42.667-28.54 42.667 0v448h597.333v-448c0-28.691 42.667-28.002 42.667 0v469.333c-0.001 11.782-9.552 21.332-21.333 21.333zM149.333 832c-35.087 0-64-28.913-64-64v-512c0-28.54 43.065-28.172 42.667 0v512c0 12.188 9.146 21.333 21.333 21.333h725.333c12.188 0 21.333-9.146 21.333-21.333v-512c0-28.517 42.667-28.003 42.667 0v512c0 35.087-28.913 64-64 64zM21.333 192c-11.782-0.001-21.332-9.552-21.333-21.333 0-58.724 47.942-106.667 106.667-106.667h810.667c58.724 0 106.667 47.942 106.667 106.667-0.001 11.782-9.552 21.332-21.333 21.333zM51.417 149.333h921.167c-9.262-23.791-27.842-42.667-55.25-42.667h-810.667c-27.408 0-45.988 18.875-55.25 42.667z" />
<glyph unicode="&#xe941;" glyph-name="mbri-layers" d="M874.667 746.667c-14.444 0-21.333-10.565-21.333-21.333s6.909-21.333 21.333-21.333h85.333c12.188 0 21.333-9.146 21.333-21.333v-682.667c0-12.188-9.146-21.333-21.333-21.333h-682.667c-12.188 0-21.333 9.146-21.333 21.333v85.333c0.204 14.425-10.565 21.333-21.333 21.333s-21.537-6.909-21.333-21.333v-85.333c0-35.087 28.913-64 64-64h682.667c35.087 0 64 28.913 64 64v682.667c0 35.087-28.913 64-64 64zM64 960c-35.087 0-64-28.913-64-64v-682.667c0-35.087 28.913-64 64-64h682.667c35.087 0 64 28.913 64 64v682.667c0 35.087-28.913 64-64 64zM64 917.333h682.667c12.188 0 21.333-9.146 21.333-21.333v-682.667c0-12.188-9.146-21.333-21.333-21.333h-682.667c-12.188 0-21.333 9.146-21.333 21.333v682.667c0 12.188 9.146 21.333 21.333 21.333z" />
<glyph unicode="&#xe942;" glyph-name="mbri-left-right" d="M817.366 143.843l112.6 112.767-112.6 111.39c-19.784 19.259 10.003 51.195 30.292 30.293l127.729-126.521c7.926-7.939 7.926-22.384 0-30.323l-127.729-127.929c-20.803-20.889-50.384 10.149-30.292 30.323zM831.998 618.666h-682.665c-28.151 0-27.582 42.667 0 42.667h682.665c28.339 0 27.736-42.667 0-42.667zM163.969 751.986l-112.604-112.767 112.604-111.39c19.784-19.259-10.007-51.195-30.296-30.293l-127.725 126.521c-7.931 7.939-7.931 22.384 0 30.323l127.725 127.929c20.807 20.889 50.384-10.149 30.296-30.323zM149.333 277.333h682.665c28.566 0 27.526-42.667 0-42.667h-682.665c-28.819 0-27.59 42.667 0 42.667z" />
<glyph unicode="&#xe943;" glyph-name="mbri-left" d="M511.992 0c-0.154 5.535-2.454 11.456-6.414 15.325l-454.099 454.008 453.849 454.030c20.003 19.206-10.956 50.161-30.157 30.16l-468.927-468.974c-8.325-8.329-8.325-21.83 0-30.16l469.177-469.224c12.74-13.032 36.571-5.235 36.571 14.834zM1024 469.333c0-11.819-9.515-21.333-21.333-21.333h-853.333c-11.819 0-21.333 9.515-21.333 21.333s9.515 21.333 21.333 21.333h853.333c11.819 0 21.333-9.515 21.333-21.333z" />
<glyph unicode="&#xe944;" glyph-name="mbri-letter" d="M106.667 704c-21.336 0-29.137-27.547-11.862-39.064l341.228-234.534c20.896-14.362 46.138-25.069 75.968-25.069s55.257 10.707 76.152 25.069l341.228 234.534c23.558 15.946-2.609 50.173-24.159 35.147l-341.228-234.534c-16.154-11.103-31.963-17.549-51.993-17.549s-35.654 6.446-51.808 17.549l-341.228 234.534c-3.512 2.485-7.995 3.852-12.297 3.917zM64 789.333c-35.087 0-64-28.913-64-64v-554.667c0-35.087 28.913-64 64-64h896c35.087 0 64 28.913 64 64v554.667c0 35.087-28.913 64-64 64zM64 746.667h896c12.188 0 21.333-9.146 21.333-21.333v-554.667c0-12.188-9.146-21.333-21.333-21.333h-896c-12.188 0-21.333 9.146-21.333 21.333v554.667c0 12.188 9.146 21.333 21.333 21.333z" />
<glyph unicode="&#xe945;" glyph-name="mbri-like" d="M597.333 917.333c-18.37 0-34.445-3.017-47.917-11s-22.852-20.883-28.083-34.833c-10.463-27.9-9.333-60.833-9.333-103.5 0-39.111-8.904-65.564-28.417-94.833s-50.667-60.75-93.333-103.417c-18.732-17.985 10.558-49.775 30.167-30.167 42.667 42.667 75.513 75.186 98.667 109.917s35.583 72.278 35.583 118.5c0 42.667 1.129 73.734 6.667 88.5 2.769 7.383 5.388 10.483 9.917 13.167s12.454 5 26.083 5c12.444 0 19.062-2.724 23.917-6.5s8.733-9.615 11.833-18.917c6.201-18.603 6.917-49.25 6.917-81.25 0-123.259-40.417-203.833-40.417-203.833-7.047-14.175 3.254-30.817 19.083-30.833h338.167c15.782 0 24.5-24.101 24.5-42.667 0-28.444-30.833-44.917-30.833-44.917-15.726-7.862-15.726-30.304 0-38.167 0 0 30.833-16.472 30.833-44.917s-30.833-44.917-30.833-44.917c-15.726-7.862-15.726-30.304 0-38.167 0 0 30.833-16.472 30.833-44.917s-30.833-44.917-30.833-44.917c-15.726-7.862-15.726-30.304 0-38.167 0 0 30.833-16.472 30.833-44.917 0-14.222-5.718-22.618-17.167-30.25s-29.056-12.417-46.833-12.417h-512c-28.153 0-27.907-42.667 0-42.667h512c24.889 0 49.949 5.882 70.5 19.583s36.167 37.306 36.167 65.75c0 30.092-14.478 50.419-28.833 64 14.355 13.581 28.833 33.908 28.833 64s-14.478 50.419-28.833 64c14.355 13.581 28.833 33.908 28.833 64s-14.478 50.419-28.833 64c14.355 13.581 28.833 33.908 28.833 64 0 24.889-6.17 45.616-17.583 60.833s-28.639 24.5-46.417 24.5h-311c12.64 31.603 33.667 92.499 33.667 192 0 32 0.716 65.353-9.083 94.75-4.899 14.698-13.022 28.859-26.167 39.083s-30.528 15.5-50.083 15.5zM64 576c-35.087 0-64-28.913-64-64v-469.333c0-35.087 28.913-64 64-64h213.333c35.087 0 64 28.913 64 64v469.333c0 35.087-28.913 64-64 64zM64 533.333h213.333c12.188 0 21.333-9.146 21.333-21.333v-469.333c0-12.188-9.146-21.333-21.333-21.333h-213.333c-12.188 0-21.333 9.146-21.333 21.333v469.333c0 12.188 9.146 21.333 21.333 21.333z" />
<glyph unicode="&#xe946;" glyph-name="mbri-link" d="M768 191.997c141.455 0 256 114.545 256 256s-114.545 256-256 256h-106.667c-14.425 0.204-21.333-10.565-21.333-21.333s6.909-21.537 21.333-21.333h106.667c118.556 0 213.333-94.778 213.333-213.333s-94.778-213.333-213.333-213.333h-128c-118.556 0-213.333 94.778-213.333 213.333v21.333c0.205 14.425-10.565 21.333-21.333 21.333s-21.537-6.909-21.333-21.333v-21.333c0-141.455 114.545-256 256-256zM256 704c-141.455 0-256-114.545-256-256s114.545-256 256-256h106.667c14.425-0.204 21.333 10.565 21.333 21.333s-6.909 21.537-21.333 21.333h-106.667c-118.556 0-213.333 94.778-213.333 213.333s94.778 213.333 213.333 213.333h128c118.556 0 213.333-94.778 213.333-213.333v-21.333c-0.205-14.425 10.565-21.333 21.333-21.333s21.537 6.909 21.333 21.333v21.333c0 141.455-114.545 256-256 256z" />
<glyph unicode="&#xe947;" glyph-name="mbri-lock" d="M490.667 960c-129.35 0-234.667-105.317-234.667-234.667v-85.333c0-28.683 42.667-27.667 42.667 0v85.333c0 106.291 85.709 192 192 192s192-85.709 192-192v-85.333c0-28.512 42.667-28.006 42.667 0v85.333c0 129.35-105.317 234.667-234.667 234.667zM490.667 405.333c-58.658 0-106.667-48.009-106.667-106.667 0.026-32.842 17.323-61.636 42.667-81.667v-46.333c0-35.087 28.913-64 64-64s64 28.913 64 64v46.417c25.323 20.008 42.609 48.774 42.667 81.583 0 58.658-48.009 106.667-106.667 106.667zM490.667 362.667c35.599 0 64-28.401 64-64-0.040-22.858-12.204-43.821-32-55.25-6.608-3.816-10.675-10.87-10.667-18.5v-54.25c0-12.188-9.146-21.333-21.333-21.333s-21.333 9.146-21.333 21.333v54.167c0.008 7.63-4.059 14.684-10.667 18.5-19.816 11.44-31.982 32.452-32 55.333 0 35.599 28.401 64 64 64zM192 576c-35.087 0-64-28.913-64-64v-512c0-35.087 28.913-64 64-64h597.333c35.087 0 64 28.913 64 64v512c0 35.087-28.913 64-64 64zM192 533.333h597.333c12.188 0 21.333-9.146 21.333-21.333v-512c0-12.188-9.146-21.333-21.333-21.333h-597.333c-12.188 0-21.333 9.146-21.333 21.333v512c0 12.188 9.146 21.333 21.333 21.333z" />
<glyph unicode="&#xe948;" glyph-name="mbri-login" d="M448 661.333c-19.175-0.004-28.862-23.082-15.083-36.417l155.583-155.583-155.583-155.583c-20.94-20.107 10.060-51.106 30.167-30.167l170.667 170.667c8.328 8.331 8.328 21.835 0 30.167l-170.667 170.667c-4.019 4.154-9.303 6.25-15.083 6.25zM21.333 490.667h426.667c11.819 0 21.333-9.515 21.333-21.333s-9.515-21.333-21.333-21.333h-426.667c-11.819 0-21.333 9.515-21.333 21.333s9.515 21.333 21.333 21.333zM277.333 960c-35.087 0-64-28.913-64-64v-213.333c0-28.356 42.667-28.016 42.667 0v213.333c0 12.188 9.146 21.333 21.333 21.333h682.667c12.188 0 21.333-9.146 21.333-21.333v-896c0-12.188-9.146-21.333-21.333-21.333h-682.667c-12.188 0-21.333 9.146-21.333 21.333v256c0 28.516-42.667 27.85-42.667 0v-256c0-35.087 28.913-64 64-64h682.667c35.087 0 64 28.913 64 64v896c0 35.087-28.913 64-64 64z" />
<glyph unicode="&#xe949;" glyph-name="mbri-logout" d="M192 277.333c19.019 0 27.973 23.527 15.083 36.417l-155.583 155.583 155.583 155.583c19.070 18.311-12.182 48.897-30.167 30.167l-170.667-170.667c-8.328-8.331-8.328-21.835 0-30.167l170.667-170.667c4.019-4.154 9.303-6.25 15.083-6.25zM576 448h-426.667c-11.819 0-21.333 9.515-21.333 21.333s9.515 21.333 21.333 21.333h426.667c11.819 0 21.333-9.515 21.333-21.333s-9.515-21.333-21.333-21.333zM320 960c-35.087 0-64-28.913-64-64v-213.333c0-28.356 42.667-28.016 42.667 0v213.333c0 12.188 9.146 21.333 21.333 21.333h640c12.188 0 21.333-9.146 21.333-21.333v-896c0-12.188-9.146-21.333-21.333-21.333h-640c-12.188 0-21.333 9.146-21.333 21.333v256c0 28.516-42.667 27.85-42.667 0v-256c0-35.087 28.913-64 64-64h640c35.087 0 64 28.913 64 64v896c0 35.087-28.913 64-64 64z" />
</font>
</defs>
</svg>
